Welcome Guest ( Log In | Register )

> И неформату есть предел.

Рэп/хип-хоп/шансон/поп удаляются. Для них есть свои порталы.

> Forever Autumn - Howls In The Forest At Dusk (2019), Neofolk
post Mar 29 2019, 17:12:27
Post #1

Мегаманьяк
***********
Group: Металариец
Posts: 1,810
Releases: 1573
From: Одесса
On Forums: 11 years 1 month
Thanks: 13221 time(s)
Ukraine


(IMG:http://metalarea.org/images/audiocovers/2019_Mar/acov_tid319766_thumb.jpg)

*Artist: Forever Autumn
*Album: Howls In The Forest At Dusk
*Year: 2019
*Genre: Neofolk
*Country: United States (IMG:http://metalarea.org/forum/style_images/flags/United%20States.png)
*Format: mp3@CBR320kbps
*Size: 84MB

Tracklist:
1. All My Relations 04:30
2. Balalaika Fire Song 04:33
3. Tír na nÓg 06:11
4. Owl Bones and River Stones 04:15
5. The Forest I Know So Well 05:10
6. Fire in the Head 07:25
7. Mother Vulture 02:55
******************************
Total playing time: 34:59



Extended info
Line - up:

Autumn Ni Dubhghaill - Guitars, Vocals, Balalaika, Bodhran, Percussion

(IMG:https://f4.bcbits.com/img/0015442348_10.jpg)


Technical info
(IMG:http://metalarea.org/images/spectrogram/2019_Mar/92a83dcd4998854c30cabff736ef2a3d.png)
Input File: 1 - All My Relations.mp3
Channels : 2
Sample Rate : 44100
Precision : 16-bit
Duration : 00:04:30.10 = 11911322 samples = 20257.4 CDDA sectors
File Size : 10.8M
Bit Rate : 321k
Sample Encoding: MPEG audio (layer I, II or III)
Comments :
Title=All My Relations
Artist=Forever Autumn
Album=Howls in the Forest at Dusk
Tracknumber=1
Year=2019
Genre=Neofolk



Register


Thanks:
Go to the top of the page
  Insert nick Quick quote
+Quote Post
 
Start new topic
Replies (1 - 1)
post May 25 2019, 04:52:25
Post #2

Правь статус, ####!111
**************
Group: Металариец
Posts: 3,013
Releases: 0
From: Москва
On Forums: 11 years 5 months
Thanks: 430 time(s)
Russian Federation


Обе ссылки сдохли . (IMG:style_emoticons/default/6.gif)
Go to the top of the page
  Insert nick Quick quote
+Quote Post

Reply to this topicStart new topic
1 User(s) are reading this topic (1 Guests and 0 Anonymous Users)
0 Members:

 



- Lo-Fi Version Support form
Copyrights and abuse reports form
Time is now: 16th July 2019 - 01:12:15