Welcome Guest ( Log In | Register )

> И неформату есть предел.

Рэп/хип-хоп/шансон/поп удаляются. Для них есть свои порталы.

 
Reply to this topicStart new topic
> Grice - One Thousand Birds (2019) - One Thousand Birds (2019), Progressive Rock
post Mar 30 2019, 07:48:07
Post #1

Два Литра
**
Group: Завсегдатай
Posts: 194
Releases: 5
On Forums: 8 years 3 months
Thanks: 294 time(s)
Ukraine


(IMG:http://metalarea.org/images/audiocovers/2019_Mar/acov_tid319783_thumb.jpg)

*Artist: Grice - One Thousand Birds (2019)
*Album: One Thousand Birds
*Year: 2019
*Genre: Progressive Rock
*Country: United Kingdom (IMG:http://metalarea.org/forum/style_images/flags/United%20Kingdom.png)
*Format: mp3@CBR320kbps
*Size: 177MB

Tracklist:
1. One Thousand Birds (Morning Glory) 06:49
2. Hardest to Reach 07:21
3. Letterbomb 04:41
4. She Burns 05:40
5. The Passing 06:53
6. Hungersleep 06:22
7. Whatever you do Dont 03:41
8. As I Am 05:58
9. La Foresta Assente 03:07
10. Comfort Zone 09:41
11. Steam 03:43
12. Grace 06:13
13. Saving Grace
******************************
Total playing time: 1:10:09



(IMG:http://metalarea.org/images/youtube.png)
(IMG:http://metalarea.org/images/youtube.png)
(IMG:http://metalarea.org/images/youtube.png)

Extended info
‘One thousand Birds’ is a sweet winters symphony for the unconsoled, an iridescent sonic display of feathered strength and vulnerability solidified into 13 songs that breathe introspection.
'If this is the Winter, we become the Spring'.

Credits:
released March 22, 2019

Music & Lyrics by GRICE

GRICE: vocals, acoustic guitar, electric guitar, piano, keyboards, string arrangements, Ebow, sound design, programming
Richard Barbieri: programming, synths on ‘One Thousand Birds’
Andrew Fred Ehresmann: piano, Hammond organ, keyboards
Al Swainger: bass, double bass, French horn
Marco Maggiore: drums
Luca Calabrese: trumpet
Duncan Chave: sampling and bird warping
Greek lyrics written & spoken by Maria Peters on ‘Hardest to Reach’

Strings:
Eliza Carew: Cello
Steve Bingham: violin
Brenda Stewart: viola

Additional contributions:
Steve Jansen: percussion 'La Foresta Assente'
05Ric: drums 'La Foresta Assente'
J M Peters: synth ‘Hardest to Reach’ & flute 'La Foresta Assente'
Dave Costello: original bass loop concept ‘Hardest to Reach’
Lee Fletcher: treatments 'La Foresta Assente'
Jack Lawrence: autoharp 'Letterbomb'

Field recordings:
Birds & Storm 1 recorded at Swanston House (Chudleigh, UK) in 1998 by GRICE.
Storm 2 recorded during Rain Tree Crow sessions in Studio Miraval, (France) by Richard Barbieri.

Produced and arranged by GRICE
Recorded by Duncan Chave & GRICE at Sound Gallery Studios (UK).

Additional recording by Stefano Quarta at Forward Studios (Rome)
Mixed by Stefano Quarta at Forward Studios (Rome)
Mastered by Carmine Simeone at Forward Studios (Rome)

Images: GRICE
Design: Carl Glover containing all song lyrics on 8 page booklet.
Cover Image: 1000 Birds ©Helen Morse Palmer 1999


Technical info
(IMG:http://metalarea.org/images/spectrogram/2019_Mar/ee4a76cd42ea4a5214e8d16f610fa698.png)
Input File: 7 - Whatever You Do Dont.mp3
Channels : 2
Sample Rate : 44100
Precision : 16-bit
Duration : 00:03:42.05 = 9792537 samples = 16654 CDDA sectors
File Size : 8.92M
Bit Rate : 322k
Sample Encoding: MPEG audio (layer I, II or III)
Comments :
Title=Whatever You Do Dont
Artist=Grice
Album=One Thousand Birds
Tracknumber=7
Year=2019
Genre=Progressive Rock
Discnumber=1



Register


Go to the top of the page
  Insert nick Quick quote
+Quote Post

Reply to this topicStart new topic
1 User(s) are reading this topic (1 Guests and 0 Anonymous Users)
0 Members:

 



- Lo-Fi Version Support form
Copyrights and abuse reports form
Time is now: 7th June 2020 - 10:14:09