Welcome Guest ( Log In | Register )

> И неформату есть предел.

Рэп/хип-хоп/шансон/поп удаляются. Для них есть свои порталы.

 
Reply to this topicStart new topic
> Lion Shepherd - Iii (2019), Progressive/Psychedelic Rock
post Apr 8 2019, 19:34:46
Post #1

Четыре Литра
****
Group: Металариец
Posts: 359
Releases: 20
On Forums: 11 years 4 months
Thanks: 459 time(s)
United Kingdom


(IMG:http://metalarea.org/images/audiocovers/2019_Apr/acov_tid320265_thumb.jpg)

*Artist: Lion Shepherd
*Album: III
*Year: 2019
*Genre: Progressive/Psychedelic Rock
*Country: Poland (IMG:http://metalarea.org/forum/style_images/flags/Poland.png)
*Format: mp3@CBR320kbps
*Size: 135MB

Tracklist:
1 Uninvited
2 Good Old Days
3 What Went Wrong
4 Vulnerable
5 World on Fire
6 Fallen Tree
7 Toxic
8 The Kids Are Not All Right
9 Nobody
10 May You All Live in Fascinating Times
******************************
Total playing time: 59:29

Technical info
(IMG:http://metalarea.org/images/spectrogram/2019_Apr/dfcae05eeedded78be3b622acf7ce27a.png)
Input File: 02 - Good Old Days.mp3
Channels : 2
Sample Rate : 44100
Precision : 16-bit
Duration : 00:06:01.56 = 15944664 samples = 27116.8 CDDA sectors
File Size : 14.5M
Bit Rate : 320k
Sample Encoding: MPEG audio (layer I, II or III)
Comments :
Title=Good Old Days
Artist=Lion Shepherd
Album=III
Tracknumber=02
Year=2019
Genre=Rock



Register


Go to the top of the page
  Insert nick Quick quote
+Quote Post

Reply to this topicStart new topic
1 User(s) are reading this topic (1 Guests and 0 Anonymous Users)
0 Members:

 



- Lo-Fi Version Support form
Copyrights and abuse reports form
Time is now: 6th July 2020 - 02:57:56