Welcome Guest ( Log In | Register )

> Rostorchester - Die Sonne Und Der Mond In Ketten (2019), Black Metal
post Apr 16 2019, 12:45:12
Post #1

Serial Uploader
Group Icon
Group: V.I.P
Posts: 37,124
Releases: 35308
From: Lithuania
On Forums: 11 years 11 months
Thanks: 419358 time(s)
Lithuania


(IMG:https://metalarea.org/images/audiocovers/2019_Apr/acov_tid320592_thumb.jpg)

*Artist: Rostorchester
*Album: Die Sonne Und Der Mond In Ketten
*Year: 2019
*Genre: Black Metal
*Country: Switzerland (IMG:https://metalarea.org/forum/style_images/flags/Switzerland.png)
*Format: mp3@VBR232kbps
*Size: 55MB

Tracklist:
01. Intro (Gustloff im Herbstnebel) 02:42
02. Mit dem Herbst im Herz aus Eisen 03:27
03. Leben in Lebensabendrot 03:08
04. So verbittert wie verwittert 03:30
05. Die welke Hand der Grausamkeit 01:31
06. Ein Antlitz voller Mitternacht 03:07
07. Die Gruft die ich geworden bin 01:53
08. Die Knochen eines Winters 03:33
09. Die Sonne und der Mond in Ketten 05:26
10. Outro (Aller Herzen Herbst und Winter) 02:49
******************************
Total playing time: 31:06



(IMG:https://metalarea.org/images/youtube.png)

Technical info
(IMG:https://metalarea.org/images/spectrogram/2019_Apr/baec6fcac97999bf513fc1b06cddc191.png)
Input File: 02. Mit Dem Herbst Im Herz Aus Eisen.mp3
Channels : 2
Sample Rate : 44100
Precision : 16-bit
Duration : 00:03:27.46 = 9149162 samples = 15559.8 CDDA sectors
File Size : 6.67M
Bit Rate : 257k
Sample Encoding: MPEG audio (layer I, II or III)
Comments :
Title=02. Mit Dem Herbst Im Herz Aus Eisen
Artist=Rostorchester
Album=Die Sonne Und Der Mond In Ketten
Tracknumber=2/10
Year=2019
Genre=Black Metal
Discnumber=1/1



Register


Go to the top of the page
  Insert nick Quick quote
+Quote Post
 
Start new topic
Replies (1 - 2)
post Apr 16 2019, 13:22:04
Post #2

Три Литра
***
Group: Завсегдатай
Posts: 273
Releases: 0
From: Россия
On Forums: 8 years 3 months
Thanks: 90 time(s)
Russian Federation


Альбом на арее уже лежит 3 дня,человек в запросах ссылку добавил.А ты токо на гм увидел и скорей переливать (IMG:style_emoticons/default/1488.gif)


Go to the top of the page
  Insert nick Quick quote
+Quote Post
post May 15 2019, 12:48:01
Post #3

Литр
*
Group: Подсевший
Posts: 92
Releases: 43
On Forums: 1 year 1 month
Thanks: 835 time(s)
Unknown


Register

MP3@CBR320Kbps


Go to the top of the page
  Insert nick Quick quote
+Quote Post

Reply to this topicStart new topic
2 User(s) are reading this topic (2 Guests and 0 Anonymous Users)
0 Members:

 



- Lo-Fi Version Support form
Copyrights and abuse reports form
Time is now: 30th May 2020 - 21:56:03