Welcome Guest ( Log In | Register )

Объявления

* gmail.com упорно продолжает считать почту с нас "unsolicited" и отбивает в том числе и письма активации, поэтому просьба использовать альтернативные почтовые ящики.
------------
* gmail.com continues reject all mail from us as "unsolicited" (activation mails too) therefore please use alternate mail servers.

> Forum rules / Правила раздела

Here go releases which can't go to New releases forums due lack of information, stolen links or incorrect data and just founded in other sites links with minimum info. Reissue of this releases through Add release form with added/corrected data, info and own links highly welcomed.

Сюда уходят релизы, не пропущенные в основные релизные форумы по причинам отсутствия, недостаточности или неверности/некорректности сопровождающей информации, содержащие ссылки, указывающие на файлы, залитые не автором темы, а так же просто найденные где-то ссылки с минимумом информации. Переоформление тем отсюда через форму Добавления релиза с перезаливкой ссылок крайне приветствуется.

> Clouds - I Fear The Light [single] (2019), Doom Metal (D)
post Apr 17 2019, 06:29:56
Post #1

Мегаманьяк
***********
Group: Металариец
Posts: 1,588
Releases: 131
On Forums: 10 years 7 months
Thanks: 4152 time(s)
Unknown


(IMG:http://metalarea.org/images/audiocovers/2019_Apr/acov_tid320617_thumb.jpg)

*Artist: Clouds
*Album: I Fear The Light [single]
*Year: 2019
*Genre: Doom Metal
*Country: International (IMG:http://metalarea.org/forum/style_images/flags/International.png)
*Format: mp3@CBR320kbps
*Size: 14MB

Tracklist:
01. I Fear The Light (feat. Kostas Panagiotou) 05:54
******************************
Total playing time: 5:54



Technical info
(IMG:http://metalarea.org/images/spectrogram/2019_Apr/c8919c07a6bf047a7357fea980bdd0c0.png)
Input File: 01 - I Fear The Light (with Kostas Panagiotou).mp3
Channels : 2
Sample Rate : 44100
Precision : 16-bit
Duration : 00:05:55.02 = 15656514 samples = 26626.7 CDDA sectors
File Size : 14.3M
Bit Rate : 322k
Sample Encoding: MPEG audio (layer I, II or III)
Comments :
Title=I Fear The Light (with Kostas Panagiotou)
Artist=Clouds Official
Year=2019



Register


Go to the top of the page
  Insert nick Quick quote
+Quote Post
 
Start new topic
Replies (1 - 5)
post Oct 1 2020, 19:39:55
Post #2

Правь статус, ####!111
**************
Group: Металариец
Posts: 5,618
Releases: 632
From: MoscoW
On Forums: 17 years 5 months
Thanks: 10317 time(s)
Russian Federation


Можно скачать Б/П в 320kbps!!!:

(IMG:style_emoticons/default/metaler.gif)


Thanks:
Go to the top of the page
  Insert nick Quick quote
+Quote Post
post Oct 2 2020, 19:13:12
Post #3

Forever Underground
**************
Group: Металариец
Posts: 12,170
Releases: 0
On Forums: 9 years 1 month
Thanks: 19730 time(s)
Unknown


WAV
Register
Go to the top of the page
  Insert nick Quick quote
+Quote Post
post Feb 3 2021, 21:35:33
Post #4

Правь статус, ####!111
**************
Group: Металариец
Posts: 4,834
Releases: 29
From: Holland
On Forums: 17 years 10 months
Thanks: 1935 time(s)
Netherlands


Шикарная песня, кстати. Крайне печальная, спокойная и величественная.
Клавишные огонь.
Go to the top of the page
  Insert nick Quick quote
+Quote Post
post Feb 3 2021, 21:43:26
Post #5

Ледоруб
**************
Group: Металариец
Posts: 33,543
Releases: 0
From: Санкт-Петербург
On Forums: 14 years 8 months
Thanks: 11727 time(s)
Russian Federation


Да, хорошая.
Go to the top of the page
  Insert nick Quick quote
+Quote Post
post Apr 19 2024, 13:23:10
Post #6

Правь статус, ####!111
**************
Group: Металариец
Posts: 3,332
Releases: 0
On Forums: 15 years 3 months
Thanks: 1663 time(s)
South Korea


1. Direct link to 320 kbps on Musify:
Register


2. Preview (or purchase):

3. Also included as a bonus track in: Clouds - Destin [ep] (2017)
Go to the top of the page
  Insert nick Quick quote
+Quote Post

Reply to this topicStart new topic
2 User(s) are reading this topic (2 Guests and 0 Anonymous Users)
0 Members:

 



- Lo-Fi Version Support form
Copyrights and abuse reports form
Time is now: 21st May 2024 - 07:37:41