Welcome Guest ( Log In | Register )

> Above The Creation - Dehumanized... [ep] (2019), Progressive Death Metal
post Apr 18 2019, 14:34:13
Post #1

Serial Uploader
Group Icon
Group: V.I.P
Posts: 42,412
Releases: 40481
From: Lithuania
On Forums: 15 years 10 months
Thanks: 517334 time(s)
Lithuania


(IMG:https://metalarea.org/images/audiocovers/2019_Apr/acov_tid320684_thumb.jpg)

*Artist: Above The Creation
*Album: Dehumanized... [ep]
*Year: 2019
*Genre: Progressive Death Metal
*Country: Portugal (IMG:https://metalarea.org/forum/style_images/flags/Portugal.png)
*Format: mp3@CBR320kbps
*Size: 53MB

Tracklist:
01. The Mask
02. God's Call
03. Dance of the Sky
04. Blind Eyes
05. Human
******************************
Total playing time: 23:04



Technical info
(IMG:https://metalarea.org/images/spectrogram/2019_Apr/7538d8b6c2d4722e295d82d197977548.png)
Input File: 02. God\'s Call.mp3
Channels : 2
Sample Rate : 44100
Precision : 16-bit
Duration : 00:04:46.37 = 12629049 samples = 21478 CDDA sectors
File Size : 11.5M
Bit Rate : 322k
Sample Encoding: MPEG audio (layer I, II or III)
Comments :
Title=God's Call
Artist=Above The Creation
Album=Dehumanized
Tracknumber=2
Year=2019
Discnumber=1



Register


Go to the top of the page
  Insert nick Quick quote
+Quote Post
 
Start new topic
Replies (1 - 1)
post May 7 2019, 08:07:32
Post #2

मृत्यु
**************
Group: Металариец
Posts: 3,523
Releases: 24
On Forums: 13 years 9 months
Thanks: 2311 time(s)
Antarctica




Thanks:
(1) Shadowman,
Go to the top of the page
  Insert nick Quick quote
+Quote Post

Reply to this topicStart new topic
1 User(s) are reading this topic (1 Guests and 0 Anonymous Users)
0 Members:

 



- Lo-Fi Version Support form
Copyrights and abuse reports form
Time is now: 21st April 2024 - 12:11:42