Welcome Guest ( Log In | Register )

> Wallfahrer - Rattenritual (2019), Black Metal
post Apr 19 2019, 18:24:18
Post #1

Правь статус, ####!111
**************
Group: Металариец
Posts: 35,617
Releases: 26512
From: Г.Харьков
On Forums: 11 years 11 months
Thanks: 573331 time(s)
Ukraine


(IMG:https://metalarea.org/images/audiocovers/2019_Apr/acov_tid320760_thumb.jpg)

*Artist: Wallfahrer
*Album: Rattenritual
*Year: 2019
*Genre: Black Metal
*Country: Germany (IMG:https://metalarea.org/forum/style_images/flags/Germany.png)
*Format: mp3@CBR320kbps
*Size: 100MB

Tracklist:
1. Wacht Des Waldes (Im Antlitz Der Hektoden) 07:49
2. Rattenritual 07:06
3. Pilger Im Nebel (Wo Unsere Freiheit Wächst) 07:50
4. Wenn Der Blick Ins Weite Schweift 03:55 instrumental
5. Exilexistenz 07:49
6. Des Winters Joch (Still Und Müd' Wird Die Welt) 08:44
******************************
Total playing time: 43:13




Technical info
(IMG:https://metalarea.org/images/spectrogram/2019_Apr/de458a89e40f88eb215d703fda955165.png)
Input File: 02 Rattenritual.mp3
Channels : 2
Sample Rate : 44100
Precision : 16-bit
Duration : 00:07:06.24 = 18797052 samples = 31967.8 CDDA sectors
File Size : 17.2M
Bit Rate : 324k
Sample Encoding: MPEG audio (layer I, II or III)
Comments :
Title=Rattenritual
Artist=Wallfahrer
Album=Rattenritual
Tracknumber=2
Year=2019



Register


Go to the top of the page
  Insert nick Quick quote
+Quote Post
 
Start new topic
Replies (1 - 7)
post Apr 19 2019, 19:34:21
Post #2

Правь статус, ####!111
**************
Group: Металариец
Posts: 35,617
Releases: 26512
From: Г.Харьков
On Forums: 11 years 11 months
Thanks: 573331 time(s)
Ukraine


Cloud Mail 320
Register


Go to the top of the page
  Insert nick Quick quote
+Quote Post
post Apr 19 2019, 19:47:04
Post #3

I hate you all
**************
Group: Металариец
Posts: 3,477
Releases: 123
From: Ukraine
On Forums: 16 years 11 months
Thanks: 8744 time(s)
Ukraine


Отменный альбом !
Go to the top of the page
  Insert nick Quick quote
+Quote Post
post Apr 19 2019, 22:02:36
Post #4

I love Sushi
*******
Group: Металариец
Posts: 747
Releases: 0
From: Vienna
On Forums: 14 years 9 months
Thanks: 210 time(s)
Austria


Thats pretty good BM have to say.
Go to the top of the page
  Insert nick Quick quote
+Quote Post
post Apr 21 2019, 09:04:52
Post #5

Common dweller of hell
**************
Group: Металариец
Posts: 5,356
Releases: 12
From: Dnipro
On Forums: 15 years 9 months
Thanks: 2169 time(s)
Ukraine


Такой блэк нам нужен (IMG:style_emoticons/default/dooo.gif)
Предыдущий у них был тоже великолепным.
Go to the top of the page
  Insert nick Quick quote
+Quote Post
post Apr 21 2019, 15:31:50
Post #6

Правь статус, ####!111
**************
Group: Металариец
Posts: 2,448
Releases: 0
On Forums: 15 years 1 month
Thanks: 982 time(s)
Antarctica


Скучная музыка.
Go to the top of the page
  Insert nick Quick quote
+Quote Post
post Oct 19 2019, 15:37:32
Post #7

Два Литра
**
Group: Завсегдатай
Posts: 129
Releases: 60
On Forums: 5 years 1 week
Thanks: 1598 time(s)
Unknown


Register


MP3@CBR320Kbps + Bonustrack "07 Im Reich Von Mammons Erben (Versuchung & Verblendung)"


Go to the top of the page
  Insert nick Quick quote
+Quote Post
post Dec 5 2019, 19:44:04
Post #8

Black is beautiful
***********
Group: Металариец
Posts: 1,980
Releases: 4
On Forums: 12 years 1 month
Thanks: 445 time(s)
Unknown


Good Black Metal. But the album: "Anthologie Der Abkehr" is better!
(IMG:style_emoticons/default/true_black.gif) (IMG:style_emoticons/default/true_black.gif) (IMG:style_emoticons/default/true_black.gif)


Thanks:
(1) Verhasst,
Go to the top of the page
  Insert nick Quick quote
+Quote Post

Reply to this topicStart new topic
1 User(s) are reading this topic (1 Guests and 0 Anonymous Users)
0 Members:

 



- Lo-Fi Version Support form
Copyrights and abuse reports form
Time is now: 21st April 2024 - 11:59:05