Welcome Guest ( Log In | Register )

> Goatkraft - Sulphurous Northern Bestiality (2019), Black/Death Metal
post Apr 22 2019, 15:53:06
Post #1

Правь статус, ####!111
**************
Group: Металариец
Posts: 2,714
Releases: 2229
From: Praha
On Forums: 9 years 5 months
Thanks: 61818 time(s)
Czech Republic


(IMG:http://metalarea.org/images/audiocovers/2019_Apr/acov_tid320849_thumb.jpg)

*Artist: Goatkraft
*Album: Sulphurous Northern Bestiality
*Year: 2019
*Genre: Black/Death Metal
*Country: Norway (IMG:http://metalarea.org/forum/style_images/flags/Norway.png)
*Format: mp3@CBR320kbps
*Size: 71MB

Tracklist:
01. Yawns from the Abyss 00:43
02. Hordes of Damnation 03:34
03. Goatkraft's Command 03:25
04. The Oath 00:52
05. Bestial Desecration 03:35
06. Imperial Hate 03:28
07. Spell of Black Pestilence 03:22
08. Invocation to the Lord of Huracanes 00:45
09. Blasphemous Sulphur Oppression 03:09
10. Deathblade of Plague and Torment 03:35
11. Volcanic Orthodox Necromancy 02:02
******************************
Total playing time: 28:30



Extended info
Iron Bonehead Productions


Technical info
(IMG:http://metalarea.org/images/spectrogram/2019_Apr/bbc83d93200b2bc063e601f8891a3943.png)
Input File: 02. Hordes Of Damnation.mp3
Channels : 2
Sample Rate : 44100
Precision : 16-bit
Duration : 00:03:34.67 = 9467035 samples = 16100.4 CDDA sectors
File Size : 8.78M
Bit Rate : 327k
Sample Encoding: MPEG audio (layer I, II or III)
Comments :
Title=Hordes Of Damnation
Artist=Goatkraft
Album=Sulphurous Northern Bestiality
Tracknumber=02/11
Year=2019
Genre=Black Metal



Register


Go to the top of the page
  Insert nick Quick quote
+Quote Post
 
Start new topic
Replies (1 - 9)
post Apr 22 2019, 21:33:48
Post #2

MDM-Thrash Metal
**************
Group: Металариец
Posts: 11,975
Releases: 1683
From: Одесса
On Forums: 16 years 1 month
Thanks: 39330 time(s)
Ukraine




Thanks:
(1) Occultas,
Go to the top of the page
  Insert nick Quick quote
+Quote Post
post Apr 23 2019, 00:06:57
Post #3

Правь статус, ####!111
**************
Group: Металариец
Posts: 8,363
Releases: 181
From: URUGUAY
On Forums: 16 years 11 months
Thanks: 28267 time(s)
Uruguay


mirror
Register


Thanks:
Go to the top of the page
  Insert nick Quick quote
+Quote Post
post Apr 23 2019, 10:48:51
Post #4

кручу наждак
**************
Group: Металариец
Posts: 6,231
Releases: 108
From: Самара
On Forums: 13 years 4 months
Thanks: 4813 time(s)
Russian Federation


Хз как это оценивать. Козлота и козлота. Слушать можно, надоесть не успевает. Лейбл опять же уважаемый.


Thanks:
Go to the top of the page
  Insert nick Quick quote
+Quote Post
post Apr 23 2019, 19:54:10
Post #5
BAN
Banned till
Oct 22 2023, 16:17:59



interesting release


Go to the top of the page
  Insert nick Quick quote
+Quote Post
post Apr 23 2019, 20:50:01
Post #6

Full-of-Hate
**************
Group: Металариец
Posts: 5,472
Releases: 0
From: Moscow
On Forums: 14 years 2 months
Thanks: 6593 time(s)
Russian Federation


Наконец-то и в Норвегии появилась своя козло-блэк-дэт-группа, за которую, так сказать, не стыдно. Все сделано в жестких рамках стиля, но в охотку слушается приятно, скуки не вызывает. Неполных полчаса проносятся лаконичным потоком долбы и молотилова. Неплохо!


Thanks:
(1) Occultas,
Go to the top of the page
  Insert nick Quick quote
+Quote Post
post Apr 22 2020, 11:16:28
Post #7

La liberté est un mystère
**************
Group: Металариец
Posts: 8,083
Releases: 13
On Forums: 13 years 10 months
Thanks: 4015 time(s)
Unknown


Что то вообще как об стену горох...


Thanks:
(1) Occultas,
Go to the top of the page
  Insert nick Quick quote
+Quote Post
post Jul 23 2023, 10:50:21
Post #8

Шесть Литров
******
Group: Металариец
Posts: 515
Releases: 0
On Forums: 7 years 2 months
Thanks: 59 time(s)
Unknown


Horny Ritual Black/Death Metal!
(IMG:style_emoticons/default/true_black.gif) (IMG:style_emoticons/default/true_black.gif) (IMG:style_emoticons/default/true_black.gif)
Go to the top of the page
  Insert nick Quick quote
+Quote Post
post Sep 18 2023, 18:17:08
Post #9
BAN
Banned till
Oct 8 2023, 17:05:32



Goatkraft - Prophet of Eternal Damnation - 03 // 11 // 23

(IMG:https://i.ibb.co/48rvvVG/1166163.jpg)

1. Portal to Annihilation
2. Herald of Death
3. Bestial Black Metal Hordes
4. Filth Eradication
5. Prophet of Eternal Damnation
6. Death Psalm
7. Barbaric Hatred and Doom
8. Primal Instincts
9. Thermonuclear Genocide



Thanks:
(1) Occultas,
Go to the top of the page
  Insert nick Quick quote
+Quote Post
post Sep 21 2023, 04:58:05
Post #10
BAN
Banned till
Sep 26 2023, 20:46:48



Mirror
Register


Thanks:
(1) rimfrost,
Go to the top of the page
  Insert nick Quick quote
+Quote Post

Reply to this topicStart new topic
2 User(s) are reading this topic (2 Guests and 0 Anonymous Users)
0 Members:

 



- Lo-Fi Version Support form
Copyrights and abuse reports form
Time is now: 26th September 2023 - 00:05:06