Welcome Guest ( Log In | Register )

> Altar Of Oblivion - The Seven Spirits (2019), Epic Heavy/Doom Metal (D)
post Apr 25 2019, 11:51:41
Post #1

Serial Uploader
Group Icon
Group: V.I.P
Posts: 42,048
Releases: 40118
From: Lithuania
On Forums: 15 years 8 months
Thanks: 511340 time(s)
Lithuania


(IMG:https://metalarea.org/images/audiocovers/2019_Apr/acov_tid320977_thumb.jpg)

*Artist: Altar Of Oblivion
*Album: The Seven Spirits
*Year: 2019
*Genre: Epic Heavy/Doom Metal
*Country: Denmark (IMG:https://metalarea.org/forum/style_images/flags/Denmark.png)
*Format: mp3@CBR320kbps
*Size: 94MB

Tracklist:
01. Created in the Fires of Holiness 05:37
02. No One Left 04:37
03. Gathering at the Wake 06:04
04. The Seven Spirits 04:22
05. Language of the Dead 05:40
06. Solemn Messiah 07:29
07. Grand Gesture of Defiance 07:04
******************************
Total playing time: 40:53

(IMG:https://metalarea.org/images/myspace.png)


(IMG:https://metalarea.org/images/youtube.png)

Technical info
(IMG:https://metalarea.org/images/spectrogram/2019_Apr/195c15ae2c0cd01f2ad021d75bdd956e.png)
Input File: 2 - No One Left.mp3
Channels : 2
Sample Rate : 44100
Precision : 16-bit
Duration : 00:04:36.91 = 12211863 samples = 20768.5 CDDA sectors
File Size : 11.1M
Bit Rate : 322k
Sample Encoding: MPEG audio (layer I, II or III)
Comments :
Title=No One Left
Artist=Altar Of Oblivion
Album=The Seven Spirits
Tracknumber=2
Year=2019
Genre=Alternative/Indie Rock/Metal
Discnumber=1



Register


Go to the top of the page
  Insert nick Quick quote
+Quote Post
 
Start new topic
Replies (1 - 1)
post Apr 27 2019, 09:25:27
Post #2

necrophilosopher
**********
Group: Металариец
Posts: 1,136
Releases: 0
From: Ад-на-Земле
On Forums: 15 years 2 months
Thanks: 1043 time(s)
Uzbekistan




Go to the top of the page
  Insert nick Quick quote
+Quote Post

Reply to this topicStart new topic
2 User(s) are reading this topic (2 Guests and 0 Anonymous Users)
0 Members:

 



- Lo-Fi Version Support form
Copyrights and abuse reports form
Time is now: 3rd March 2024 - 00:38:15