Welcome Guest ( Log In | Register )

> Esicastic - Demo '96 [demo] (1996), Progressive Death Metal
post Apr 27 2019, 12:20:45
Post #1

Подвал
**************
Group: Металариец
Posts: 20,221
Releases: 11598
From: Far East (Khabarovsk)
On Forums: 15 years 2 months
Thanks: 137799 time(s)
Russian Federation


(IMG:http://metalarea.org/images/audiocovers/2019_Apr/acov_tid321117_thumb.jpg)

*Artist: Esicastic
*Album: Demo '96 [demo]
*Year: 1996
*Genre: Progressive Death Metal
*Country: Italy (IMG:http://metalarea.org/forum/style_images/flags/Italy.png)
*Format: mp3@CBR128kbps (IMG:http://metalarea.org/images/bit_low.gif)
*Size: 25MB

Tracklist:
1. Intro 02:10
2. Errors And Madness 03:52
3. Frames 04:00
4. Pole Position 04:50
5. Straight To Delirium 00:30
6. Faded 03:30
7. Revival 04:16
8. Abuse 05:50
******************************
Total playing time: 28:58

(IMG:http://metalarea.org/images/myspace.png)

Technical info
(IMG:http://metalarea.org/images/spectrogram/2019_Apr/db048a120b96f76d9a80a9ae3e14075f.png)
Input File: 02-Errors And Madness.mp3
Channels : 2
Sample Rate : 44100
Precision : 16-bit
Duration : 00:03:40.79 = 9737015 samples = 16559.5 CDDA sectors
File Size : 3.53M
Bit Rate : 128k
Sample Encoding: MPEG audio (layer I, II or III)
Comments :
Title=Errors And Madness
Artist=Esicastic
Album=Promo 1996
Tracknumber=02
Year=1996
Genre=Death Metal



Register


Go to the top of the page
  Insert nick Quick quote
+Quote Post
 
Start new topic
Replies (1 - 3)
post Feb 9 2023, 02:00:11
Post #2

Два Литра
**
Group: Завсегдатай
Posts: 110
Releases: 0
On Forums: 6 years 1 month
Thanks: 13 time(s)
United States


Please reupload. Thanks!
Go to the top of the page
  Insert nick Quick quote
+Quote Post
post Mar 5 2023, 19:15:54
Post #3

Подвал
**************
Group: Металариец
Posts: 20,221
Releases: 11598
From: Far East (Khabarovsk)
On Forums: 15 years 2 months
Thanks: 137799 time(s)
Russian Federation


new link:
Register


Go to the top of the page
  Insert nick Quick quote
+Quote Post
post Oct 27 2023, 02:33:21
Post #4

Правь статус, ####!111
**************
Group: Металариец
Posts: 3,270
Releases: 0
On Forums: 15 years 2 months
Thanks: 1622 time(s)
South Korea


Thank you, Proteus_666, as always!
---
Some might be interested in the band's 2004 split album with A FLOWER KOLLAPSED:

ESICASTIC'S two tracks at 320 kbps (whereas those of A FLOWER KOLLAPSED at 179 and 165 kbps respectively):

Register


That said, anyone with their 1998 demo 'Undecember' by any chance?
Go to the top of the page
  Insert nick Quick quote
+Quote Post

Reply to this topicStart new topic
1 User(s) are reading this topic (1 Guests and 0 Anonymous Users)
0 Members:

 



- Lo-Fi Version Support form
Copyrights and abuse reports form
Time is now: 16th April 2024 - 09:36:13