Welcome Guest ( Log In | Register )

> Toughguy & Born Backwards - Toughguy/Born Backwards [split] (2019), Goregrind | Grindcore/Goregrind
post Apr 30 2019, 13:58:30
Post #1

Serial Uploader
Group Icon
Group: V.I.P
Posts: 37,124
Releases: 35308
From: Lithuania
On Forums: 11 years 11 months
Thanks: 419440 time(s)
Lithuania


(IMG:https://metalarea.org/images/audiocovers/2019_Apr/acov_tid321227_thumb.jpg)

*Artist: Toughguy & Born Backwards
*Album: Toughguy/Born Backwards [split]
*Year: 2019
*Genre: Goregrind | Grindcore/Goregrind
*Country: Russian Federation (IMG:https://metalarea.org/forum/style_images/flags/Russian%20Federation.png) | United States (IMG:https://metalarea.org/forum/style_images/flags/United%20States.png)
*Format: mp3@CBR320kbps
*Size: 20MB

Tracklist:
Toughguy:
01. Backpack Full Of Shit 01:09
02. Beans For Breakfast Once Again 00:57
03. Goreruption 01:11
04. Masked Toughguy (Haggus Cover) 01:00
Born Backwards:
05. Grotesque Droppings 01:03
06. Kickflip Beheading 00:38
07. Butter Knife Stabbing 01:04
08. I Stubbed My Toe While Aborting Cats 01:01
******************************
Total playing time: 8:03



(IMG:https://metalarea.org/images/youtube.png)

Technical info
(IMG:https://metalarea.org/images/spectrogram/2019_Apr/e02a29acb3ce3ffae6ad2ce4ca40838c.png)
Input File: 02. BEANS FOR BREAKFAST ONCE AGAIN.mp3
Channels : 2
Sample Rate : 44100
Precision : 16-bit
Duration : 00:00:57.58 = 2539146 samples = 4318.28 CDDA sectors
File Size : 2.52M
Bit Rate : 350k
Sample Encoding: MPEG audio (layer I, II or III)
Comments :
Title=BEANS FOR BREAKFAST ONCE AGAIN
Artist=TOUGHGUY
Album=Split w/ Born Backwards
Tracknumber=2
Year=2019



Register


Thanks:
Go to the top of the page
  Insert nick Quick quote
+Quote Post
 
Start new topic
Replies (1 - 3)
post Dec 24 2019, 06:08:58
Post #2

Split Backup Copy
**************
Group: Металариец
Posts: 5,276
Releases: 243
From: с. Мизоново, Ишимский Район, Тюменская область
On Forums: 12 years 5 months
Thanks: 3589 time(s)
Russian Federation


Reupload please.
Go to the top of the page
  Insert nick Quick quote
+Quote Post
post Mar 3 2020, 00:01:27
Post #3

Split Backup Copy
**************
Group: Металариец
Posts: 5,276
Releases: 243
From: с. Мизоново, Ишимский Район, Тюменская область
On Forums: 12 years 5 months
Thanks: 3589 time(s)
Russian Federation


Перезалейте, пожалуйста.
Go to the top of the page
  Insert nick Quick quote
+Quote Post
post May 21 2020, 22:11:01
Post #4

Split Backup Copy
**************
Group: Металариец
Posts: 5,276
Releases: 243
From: с. Мизоново, Ишимский Район, Тюменская область
On Forums: 12 years 5 months
Thanks: 3589 time(s)
Russian Federation


Reupload please.
Go to the top of the page
  Insert nick Quick quote
+Quote Post

Reply to this topicStart new topic
1 User(s) are reading this topic (1 Guests and 0 Anonymous Users)
0 Members:

 



- Lo-Fi Version Support form
Copyrights and abuse reports form
Time is now: 3rd June 2020 - 09:28:59