Welcome Guest ( Log In | Register )

> Izurus - Terror From The Deep (2019), Technical Brutal Death Metal
post May 5 2019, 17:09:19
Post #1

Правь статус, ####!111
**************
Group: Металариец
Posts: 35,114
Releases: 26118
From: Г.Харьков
On Forums: 11 years 9 months
Thanks: 562117 time(s)
Ukraine


(IMG:https://metalarea.org/images/audiocovers/2019_May/acov_tid321461_thumb.jpg)

*Artist: Izurus
*Album: Terror From The Deep
*Year: 2019
*Genre: Technical Brutal Death Metal
*Country: Poland (IMG:https://metalarea.org/forum/style_images/flags/Poland.png)
*Format: mp3@CBR320kbps
*Size: 90MB

Tracklist:
1. Anxiety Sower 02:31
2. Labyrinth 03:49
3. Non Omnis Moriar 07:57
4. Parasite 03:41
5. Praising the Creation of All Life 02:20
6. Wherever I Look Something Saint I See 03:00
7. Words That Mean Nothing 04:06
8. The Line of Light Cut Too Early 06:06
9. Terror from the Deep 05:15
******************************
Total playing time: 38:45




Extended info
Piotr Białkowski Guitars, Vocals (2010-present)
See also: Permitted Deviations, ex-Lady Temptress, Salary Idol, ex-NewBreed, ex-Feythland (live), ex-ArtyleriA
Robert Szuta Bass (2011-present), Vocals (2013-present)
See also: Permitted Deviations, ex-Frontier of Existence, ex-Corrosion of the Backbone, ex-Dahmer Method


Technical info
(IMG:https://metalarea.org/images/spectrogram/2019_May/fb8abc31028ab3afb4cf18721603a852.png)
Input File: Izurus - Terror from the deep - 04 Parasite.mp3
Channels : 2
Sample Rate : 44100
Precision : 16-bit
Duration : 00:03:41.09 = 9749893 samples = 16581.5 CDDA sectors
File Size : 8.94M
Bit Rate : 324k
Sample Encoding: MPEG audio (layer I, II or III)
Comments :
Title=Parasite
Artist=Izurus
Album=Terror from the deep
Tracknumber=4
Year=2019



Register


Go to the top of the page
  Insert nick Quick quote
+Quote Post
 
Start new topic
Replies (1 - 1)
post May 7 2019, 09:56:08
Post #2

Литр
*
Group: Подсевший
Posts: 81
Releases: 5
On Forums: 5 years 2 weeks
Thanks: 221 time(s)
Ukraine



На самом деле не так уж и плохой польский Nile.


Thanks:
(1) Vladimir,
Go to the top of the page
  Insert nick Quick quote
+Quote Post

Reply to this topicStart new topic
1 User(s) are reading this topic (1 Guests and 0 Anonymous Users)
0 Members:

 



- Lo-Fi Version Support form
Copyrights and abuse reports form
Time is now: 2nd March 2024 - 23:58:23