Welcome Guest ( Log In | Register )

> Tengger Cavalry - Northern Memory (Vol. 1) (2019), Melodic Death/Folk Metal (D17)
post May 9 2019, 13:48:00
Post #1

Serial Uploader
Group Icon
Group: V.I.P
Posts: 37,603
Releases: 35775
From: Lithuania
On Forums: 13 years 2 weeks
Thanks: 432914 time(s)
Lithuania


(IMG:https://metalarea.org/images/audiocovers/2019_May/acov_tid321601_thumb.jpg)

*Artist: Tengger Cavalry
*Album: Northern Memory (Vol. 1)
*Year: 2019
*Genre: Melodic Death/Folk Metal
*Country: China (IMG:https://metalarea.org/forum/style_images/flags/China.png)
*Format: mp3@CBR320kbps
*Size: 77MB

Tracklist:
01. Cian Bi Rock and Roll
02. Khan of Heaven
03. Lone Wolf
04. My Sky
05. Forging
06. Moment
07. Unite
08. Wings of Scar and Steel
09. Pier 39
10. Iron Fist
11. Pier 39, Pt. 2
12. The Brave Brave Ones
******************************
Total playing time: 33:28

(IMG:https://metalarea.org/images/myspace.png)





Technical info
(IMG:https://metalarea.org/images/spectrogram/2019_May/13cbd8b23b5a98d5b352fac8dc813734.png)
Input File: 2 - Khan of Heaven.mp3
Channels : 2
Sample Rate : 44100
Precision : 16-bit
Duration : 00:03:05.27 = 8170407 samples = 13895.2 CDDA sectors
File Size : 7.51M
Bit Rate : 324k
Sample Encoding: MPEG audio (layer I, II or III)
Comments :
Title=Khan of Heaven
Artist=Tengger Cavalry
Album=Northern Memory, Vol. 1
Tracknumber=2
Year=2019
Genre=Metal
Discnumber=1



Register


Go to the top of the page
  Insert nick Quick quote
+Quote Post
 
Start new topic
Replies (1 - 5)
post May 12 2019, 11:51:50
Post #2

Ёлд ХеллоВяйне
Group Icon
Group: V.I.P
Posts: 31,721
Releases: 144
From: Питер
On Forums: 14 years 7 months
Thanks: 19808 time(s)
Russian Federation


Чот куда-то совсем не туда их понесло (IMG:style_emoticons/default/13.gif)
Go to the top of the page
  Insert nick Quick quote
+Quote Post
post Jun 8 2019, 18:37:06
Post #3

Schuldinerist
**************
Group: Металариец
Posts: 10,961
Releases: 34
From:
On Forums: 14 years 2 months
Thanks: 7218 time(s)
Russian Federation


команда интересна горловым пением,
на первой части оно есть, но мало,
поэтому лучше сюда Tengger Cavalry - Northern Memory (Vol. 2) [ep] (2019)
Go to the top of the page
  Insert nick Quick quote
+Quote Post
post Feb 27 2020, 08:59:38
Post #4

FOLK METAL FEVER
**************
Group: Металариец
Posts: 2,222
Releases: 6
From: Kyiv
On Forums: 13 years 7 months
Thanks: 290 time(s)
Ukraine


все ссылки сдохли.
Go to the top of the page
  Insert nick Quick quote
+Quote Post
post Feb 27 2020, 11:54:13
Post #5

Group Icon
Group: S-moderation team
Posts: 21,203
Releases: 1443
From: Zagreb
On Forums: 10 years 3 months
Thanks: 97877 time(s)
Croatia


Register


Go to the top of the page
  Insert nick Quick quote
+Quote Post
post Mar 4 2020, 19:38:17
Post #6

FOLK METAL FEVER
**************
Group: Металариец
Posts: 2,222
Releases: 6
From: Kyiv
On Forums: 13 years 7 months
Thanks: 290 time(s)
Ukraine


ЦИТАТА(Borderline1991 @ Feb 27 2020, 14:54:13) *

гранд мерси!


Thanks:
Go to the top of the page
  Insert nick Quick quote
+Quote Post

Reply to this topicStart new topic
1 User(s) are reading this topic (1 Guests and 0 Anonymous Users)
0 Members:

 



- Lo-Fi Version Support form
Copyrights and abuse reports form
Time is now: 25th June 2021 - 12:06:52