Welcome Guest ( Log In | Register )

> Incarnator - Promo [demo] (1992), Black Metal (D10)
post May 13 2019, 03:08:11
Post #1

Шесть Литров
******
Group: Металариец
Posts: 604
Releases: 77
From: SteelCity, Upper Austria
On Forums: 11 years 1 month
Thanks: 1145 time(s)
Austria


(IMG:https://metalarea.org/images/audiocovers/2019_May/acov_tid321769_thumb.jpg)

*Artist: Incarnator
*Album: Promo [demo]
*Year: 1992
*Genre: Black Metal
*Country: Norway (IMG:https://metalarea.org/forum/style_images/flags/Norway.png)
*Format: mp3@CBR192kbps
*Size: 7MB

Tracklist:
01.  In nocturnal Glory  (05:04)
******************************
Total playing time: 5:04

Extended info
Seems to be a much [url="https://metalarea.org/forum/index.php?showtopic=155106"]sought-after demo[/url].
More a rehearsal than a well-produced studio promo track though.


Technical info
(IMG:https://metalarea.org/images/spectrogram/2019_May/423940788d70657283f32598d5cdbdf0.png)
Input File: Incarnator [NOR] — 1992 — [Promo 1992] — 01 — In nocturnal Glory.mp3
Channels : 2
Sample Rate : 44100
Precision : 16-bit
Duration : 00:05:04.20 = 13415000 samples = 22814.6 CDDA sectors
File Size : 7.29M
Bit Rate : 192k
Sample Encoding: MPEG audio (layer I, II or III)
Comments :
Title=In nocturnal Glory
Artist=Incarnator [NOR]
Album=[Promo 1992]
Tracknumber=01
Year=1992
Genre=Black Metal



Register


Go to the top of the page
  Insert nick Quick quote
+Quote Post
 
Start new topic
Replies (1 - 3)
post May 14 2019, 07:11:57
Post #2

De Mysteriis Dom Sathanas
**************
Group: Металариец
Posts: 4,790
Releases: 64
From: Doom
On Forums: 15 years 9 months
Thanks: 4253 time(s)
Russian Federation


Интересно, тем более Sanrabb в 1991 на гитарке поигрывал, правда ничего уникального не жду от сабжа...
Послушал - каюсь -норм промка!

This post has been edited by RUSP73: May 14 2019, 07:14:42
Go to the top of the page
  Insert nick Quick quote
+Quote Post
post Jan 16 2021, 19:56:13
Post #3

Два Литра
**
Group: Завсегдатай
Posts: 125
Releases: 0
On Forums: 13 years 7 months
Thanks: 29 time(s)
Germany


RunningWild_AT, thank you!


Thanks:
Go to the top of the page
  Insert nick Quick quote
+Quote Post
post Oct 24 2022, 14:26:29
Post #4

Forever Underground
**************
Group: Металариец
Posts: 12,082
Releases: 0
On Forums: 9 years 2 weeks
Thanks: 19522 time(s)
Unknown


https://www.youtube.com/watch?v=zcEK7iwSobQ
(IMG:style_emoticons/default/true_black.gif)
Go to the top of the page
  Insert nick Quick quote
+Quote Post

Reply to this topicStart new topic
1 User(s) are reading this topic (1 Guests and 0 Anonymous Users)
0 Members:

 



- Lo-Fi Version Support form
Copyrights and abuse reports form
Time is now: 19th April 2024 - 23:48:42