Welcome Guest ( Log In | Register )

> Verwoed - De Val (2019), Black Metal
post May 16 2019, 10:44:59
Post #1

Два Литра
**
Group: Завсегдатай
Posts: 132
Releases: 79
On Forums: 12 years 11 months
Thanks: 3647 time(s)
Unknown


(IMG:http://metalarea.org/images/audiocovers/2019_May/acov_tid321906_thumb.jpg)

*Artist: Verwoed
*Album: De Val
*Year: 2019
*Genre: Black Metal
*Country: Netherlands (IMG:http://metalarea.org/forum/style_images/flags/Netherlands.png)
*Format: mp3@CBR320kbps
*Size: 70MB

Tracklist:
1. De val (06:03)
2. De kwelling van het bestaan (07:37)
3. Vergif (05:32)
4. Het bedriegende oog (07:01)
5. Verder dan het licht (06:00)
******************************
Total playing time: 32:13




Technical info
(IMG:http://metalarea.org/images/spectrogram/2019_May/b22a7b56e93cebf13f4980559225736f.png)
Input File: 03 Vergif.mp3
Channels : 2
Sample Rate : 44100
Precision : 16-bit
Duration : 00:05:32.59 = 14667087 samples = 24944 CDDA sectors
File Size : 13.9M
Bit Rate : 334k
Sample Encoding: MPEG audio (layer I, II or III)
Comments :
Title=Vergif
Artist=Verwoed
Album=De Val
Tracknumber=3
Year=2019
Genre=Black Metal



Register


Go to the top of the page
  Insert nick Quick quote
+Quote Post
 
Start new topic
Replies (1 - 2)
post May 16 2019, 15:14:31
Post #2
BAN
Banned till
Mar 3 2024, 11:01:22



@320

Register


Облога хороша!


Go to the top of the page
  Insert nick Quick quote
+Quote Post
post Feb 11 2024, 21:01:50
Post #3

Маньяк
**********
Group: Металариец
Posts: 1,020
Releases: 0
On Forums: 14 years 11 months
Thanks: 15 time(s)
Netherlands


Anybody got a working link please?
Go to the top of the page
  Insert nick Quick quote
+Quote Post

Reply to this topicStart new topic
2 User(s) are reading this topic (2 Guests and 0 Anonymous Users)
0 Members:

 



- Lo-Fi Version Support form
Copyrights and abuse reports form
Time is now: 26th February 2024 - 09:08:23