Welcome Guest ( Log In | Register )

> Moshlim - No Rubbish, Do It [ep] (1989), Speed/Thrash Metal
post May 22 2019, 10:40:59
Post #1

Подвал
**************
Group: Металариец
Posts: 16,000
Releases: 9154
From: Far East (Khabarovsk)
On Forums: 12 years 3 months
Thanks: 102881 time(s)
Russian Federation


(IMG:https://metalarea.org/images/audiocovers/2019_May/acov_tid322122_thumb.png)

*Artist: Moshlim
*Album: No Rubbish, Do It [ep]
*Year: 1989
*Genre: Speed/Thrash Metal
*Country: Belgium (IMG:https://metalarea.org/forum/style_images/flags/Belgium.png)
*Format: mp3@CBR320kbps
*Size: 33MB

Tracklist:
1. Moshlim 02:44
2. Revenge 02:32
3. Bonanzai 02:10
4. No Rubbish, Do It 03:54
5. Invasion Of The Snobs 07:16
******************************
Total playing time: 18:36

Extended info
Recorded at DST Studios, Hamont, Belgium in the summer of 1989.


Technical info
(IMG:https://metalarea.org/images/spectrogram/2019_May/e8fc84a23e538ec08902bb67aa2ab82c.png)
Input File: 01-Moshlim.mp3
Channels : 2
Sample Rate : 44100
Precision : 16-bit
Duration : 00:02:44.97 = 7275133 samples = 12372.7 CDDA sectors
File Size : 6.60M
Bit Rate : 320k
Sample Encoding: MPEG audio (layer I, II or III)
Comments :
Title=Moshlim
Artist=Moshlim (Bel)
Album=No Rubbish, Do It (EP)
Tracknumber=01
Year=1989
Genre=Thrash Metal



Register


Go to the top of the page
  Insert nick Quick quote
+Quote Post
 
Start new topic
Replies (1 - 5)
post Jun 11 2019, 22:53:34
Post #2

Join my religion, or die
**************
Group: Металариец
Posts: 10,938
Releases: 1641
From: Питера
On Forums: 11 years 7 months
Thanks: 21660 time(s)
Russian Federation


Предлагают этот диск за 185 евро...
Нет, я конечно понимаю, что раритет и все такое... Да к тому же в запечатке...
Но, мать их, Сто Восемьдесят Пять гр[мат->бан]ых евро!!!
Я человек не бедный, но это перебор...
Go to the top of the page
  Insert nick Quick quote
+Quote Post
post Jun 11 2019, 23:21:30
Post #3

Join my religion, or die
**************
Group: Металариец
Posts: 10,938
Releases: 1641
From: Питера
On Forums: 11 years 7 months
Thanks: 21660 time(s)
Russian Federation


ЦИТАТА(Proteus_666 @ May 22 2019, 12:40:59) *
Recorded at DST Studios, Hamont, Belgium in the summer of 1989.

Ну и если уж ты по каким то причинам решил вынести эту информацию, то поправлю:
D. St. Studios... Просто фотки прислали (IMG:style_emoticons/default/15.gif)

Вот сижу, думаю... Может всё же взять?...
Go to the top of the page
  Insert nick Quick quote
+Quote Post
post May 4 2021, 21:38:41
Post #4

Литр
*
Group: Подсевший
Posts: 72
Releases: 0
On Forums: 3 years 1 month
Thanks: 55 time(s)
Unknown


Re-up please! Link is dead.
Go to the top of the page
  Insert nick Quick quote
+Quote Post
post May 5 2021, 06:37:03
Post #5

Девять Литров
*********
Group: Металариец
Posts: 992
Releases: 188
On Forums: 2 years 3 months
Thanks: 2790 time(s)
Canada


QUOTE(traitor666 @ May 4 2021, 21:38:41) *
Re-up please! Link is dead.

Moshlim (Bel) 1989 No Rubbish, Do It!!! [EP] [5 FLAC files]
Size: 127 MB
ulotzo Link
Thanks to the original ripper and uploader. (I don't recall where I got this).
https://www.metal-archives.com/bands/Moshlim/85068
18 minutes 36 seconds
1. Moshlim (2:44)
2. Revenge (2:32)
3. Revenge (2:10)
4. No Rubbish, Do It (3:54)
5. Invasion Of The Snobs (7:16)
Register


Go to the top of the page
  Insert nick Quick quote
+Quote Post
post May 5 2021, 13:18:00
Post #6

Group Icon
Group: S-moderation team
Posts: 20,829
Releases: 1443
From: Zagreb
On Forums: 10 years 2 months
Thanks: 95430 time(s)
Croatia


Register


Go to the top of the page
  Insert nick Quick quote
+Quote Post

Reply to this topicStart new topic
1 User(s) are reading this topic (1 Guests and 0 Anonymous Users)
0 Members:

 



- Lo-Fi Version Support form
Copyrights and abuse reports form
Time is now: 16th May 2021 - 18:50:57