Welcome Guest ( Log In | Register )

> И неформату есть предел.

Рэп/хип-хоп/шансон/поп удаляются. Для них есть свои порталы.

 
Reply to this topicStart new topic
> Banco Del Mutuo Soccorso - Transiberiana (2019), Progressive Rock (D9)
post May 22 2019, 13:59:02
Post #1

Три Литра
***
Group: Завсегдатай
Posts: 298
Releases: 114
From: Helvetia
On Forums: 6 years 6 months
Thanks: 1905 time(s)
Switzerland


(IMG:https://metalarea.org/images/audiocovers/2019_May/acov_tid322128_thumb.jpg)

*Artist: Banco Del Mutuo Soccorso
*Album: Transiberiana
*Year: 2019
*Genre: Progressive Rock
*Country: Italy (IMG:https://metalarea.org/forum/style_images/flags/Italy.png)
*Format: mp3@CBR320kbps
*Size: 161MB

Tracklist:
01. Stelle sulla terra 06:05
02. L’imprevisto 03:26
03. La discesa dal treno 06:15
04. L’assalto dei lupi 05:34
05. Campi di Fragole 03:34
06. Lo sciamano 03:59
07. Eterna Transiberiana 06:18
08. I ruderi del gulag 06:05
09. Lasciando alle spalle 01:45
10. Il grande bianco 06:32
11. Oceano: Strade di sale 03:38
12. Metamorfosi (Live at Festival Prog di Veruno 2018) 09:43
13. Il ragno (Live at Festival Prog di Veruno 2018) 05:4
******************************
Total playing time: 1:02:54

(IMG:https://metalarea.org/images/youtube.png)


Extended info
(Bonus Tracks Version)


Technical info
(IMG:https://metalarea.org/images/spectrogram/2019_May/43e6181605e3256f6e8cdf4ca545d35d.png)
Input File: 03. La discesa dal treno.mp3
Channels : 2
Sample Rate : 44100
Precision : 16-bit
Duration : 00:06:15.33 = 16551833 samples = 28149.4 CDDA sectors
File Size : 15.4M
Bit Rate : 328k
Sample Encoding: MPEG audio (layer I, II or III)
Comments :
Title=La discesa dal treno
Artist=Banco Del Mutuo Soccorso
Album=Transiberiana
Tracknumber=3
Genre=92



Register


Go to the top of the page
  Insert nick Quick quote
+Quote Post

Reply to this topicStart new topic
1 User(s) are reading this topic (1 Guests and 0 Anonymous Users)
0 Members:

 



- Lo-Fi Version Support form
Copyrights and abuse reports form
Time is now: 21st August 2019 - 09:20:45