Welcome Guest ( Log In | Register )

> Templum Anima Morti - ⍢Χ͔ω Σằğωþ Χ͔åᵲằǻϻ [ep] (2019), Black Metal
post Jun 7 2019, 07:17:30
Post #1

практики шума одухотворяющего
**************
Group: Металариец
Posts: 3,068
Releases: 93
From: Хроник дисмЭмбера
On Forums: 3 years 7 months
Thanks: 4087 time(s)
Russian Federation


(IMG:https://metalarea.org/images/audiocovers/2019_Jun/acov_tid322763_thumb.jpg)

*Artist: Templum Anima Morti
*Album: ⍢Χ͔ω Σằğωþ Χ͔åᵲằǻϻ [ep]
*Year: 2019
*Genre: Black Metal
*Country: Russian Federation (IMG:https://metalarea.org/forum/style_images/flags/Russian%20Federation.png)
*Format: mp3@CBR128kbps (IMG:https://metalarea.org/images/bit_low.gif)
*Size: 28MB

Tracklist:
01.ηåϻϻǻΣ [blackmantra] 00:44
02.ϊλλұữη [impulse] 03:39
03.ҟǻχ͔ằåϻ ṧằǻχ͔ [spiral] 02:54
04.ṧǻ⍢χ͔ằåϻ ϻҿğᵲằ ҟằχ͔ữμ [spectrum] 03:31
05.ηǻṧϻåχ͔ ϊҿnημ [vector] 04:17
06.ằṧŧΩᵲ ҿᶌΩ ǻҟϻằåϻ [levitation] 04:51
07.Ωϻҿη ҿΩχ͔ ằҿλ(λ)Ωҿ [cyclicity] 06:21
08.⍢χ͔Ω ΣằğΩþ χ͔åᵲằǻϻ [vortex] 01:27
******************************
Total playing time: 27:44


(IMG:https://metalarea.org/images/youtube.png)

Technical info
(IMG:https://metalarea.org/images/spectrogram/2019_Jun/cc34861d8bf5c36323d7fc4b9687fcdf.png)
Input File: 02 ϊλλұữη [impulse].mp3
Channels : 2
Sample Rate : 44100
Precision : 16-bit
Duration : 00:03:39.09 = 9661913 samples = 16431.8 CDDA sectors
File Size : 3.90M
Bit Rate : 142k
Sample Encoding: MPEG audio (layer I, II or III)
Comments :
Title=ϊλλұữη [impulse]
Artist=Templum Anima Morti
Album=⍢χ͔Ω ΣằğΩþ χ͔åᵲằǻϻ
Tracknumber=2/8
Year=2019
Genre=Technical Black Metal
Discnumber=1/1



Register


Go to the top of the page
  Insert nick Quick quote
+Quote Post
 
Start new topic
Replies (1 - 4)
post Jun 7 2019, 12:05:50
Post #2
BAN
Banned till
Oct 22 2021, 16:25:29



одни сиськи с [мат->бан]ами, что происходит
Go to the top of the page
  Insert nick Quick quote
+Quote Post
post Jun 7 2019, 15:18:45
Post #3

практики шума одухотворяющего
**************
Group: Металариец
Posts: 3,068
Releases: 93
From: Хроник дисмЭмбера
On Forums: 3 years 7 months
Thanks: 4087 time(s)
Russian Federation


Э... таблица красивых символов юникода, можно юзать для написания грозных слов.
Go to the top of the page
  Insert nick Quick quote
+Quote Post
post Dec 8 2019, 09:34:58
Post #4

Group: Подсевший
Posts: 26
Releases: 0
From: Пермь
On Forums: 11 years 7 months
Thanks: 0 time(s)
Unknown


Может кто нибудь зальет в нормальном качестве на ргхост либо майл, только не фолдеры дырявые всякие
Go to the top of the page
  Insert nick Quick quote
+Quote Post
post May 15 2021, 16:48:15
Post #5

практики шума одухотворяющего
**************
Group: Металариец
Posts: 3,068
Releases: 93
From: Хроник дисмЭмбера
On Forums: 3 years 7 months
Thanks: 4087 time(s)
Russian Federation


320 kb/s LAME3.100
Register


Thanks:
Go to the top of the page
  Insert nick Quick quote
+Quote Post

Reply to this topicStart new topic
1 User(s) are reading this topic (1 Guests and 0 Anonymous Users)
0 Members:

 



- Lo-Fi Version Support form
Copyrights and abuse reports form
Time is now: 17th September 2021 - 14:25:01