Welcome Guest ( Log In | Register )

> Oenos - Noir II (2019), Sludge/Doom/Post-Metal
post Jun 14 2019, 13:43:24
Post #1

Serial Uploader
Group Icon
Group: V.I.P
Posts: 37,609
Releases: 35781
From: Lithuania
On Forums: 13 years 1 month
Thanks: 433239 time(s)
Lithuania


(IMG:https://metalarea.org/images/audiocovers/2019_Jun/acov_tid322999_thumb.png)

*Artist: Oenos
*Album: Noir II
*Year: 2019
*Genre: Sludge/Doom/Post-Metal
*Country: United Kingdom (IMG:https://metalarea.org/forum/style_images/flags/United%20Kingdom.png)
*Format: mp3@CBR320kbps
*Size: 96MB

Tracklist:
01. Animus
02. Blandano Valderice
03. Azei
04. Tao
05. Two Messengers
06. Protos
07. Vladika
08. Cancellus II
******************************
Total playing time: 42:33


(IMG:https://metalarea.org/images/youtube.png)

Technical info
(IMG:https://metalarea.org/images/spectrogram/2019_Jun/d9301708572dcbd8067fa22d1b265c42.png)
Input File: 02 - Blandano Valderice.mp3
Channels : 2
Sample Rate : 44100
Precision : 16-bit
Duration : 00:06:37.66 = 17536850 samples = 29824.6 CDDA sectors
File Size : 16.0M
Bit Rate : 321k
Sample Encoding: MPEG audio (layer I, II or III)
Comments :
Title=Blandano Valderice
Artist=oenos
Album=Noir II
Tracknumber=2
Year=2019
Genre=Metal
Discnumber=1



Register


Go to the top of the page
  Insert nick Quick quote
+Quote Post
 
Start new topic
Replies (1 - 1)
post Jun 14 2019, 16:48:05
Post #2

Маньяк
**********
Group: Металариец
Posts: 1,119
Releases: 0
On Forums: 10 years 2 months
Thanks: 539 time(s)
Unknown




Thanks:
(1) artscald,
Go to the top of the page
  Insert nick Quick quote
+Quote Post

Reply to this topicStart new topic
2 User(s) are reading this topic (2 Guests and 0 Anonymous Users)
0 Members:

 



- Lo-Fi Version Support form
Copyrights and abuse reports form
Time is now: 4th August 2021 - 14:24:56