Welcome Guest ( Log In | Register )

> И неформату есть предел.

Рэп/хип-хоп/шансон/поп удаляются. Для них есть свои порталы.

> Cold Body Radiation - I Fell Into The Unknown Light (2019), Shoegaze/Atmospheric Black Metal (D6)
post Jun 18 2019, 16:53:09
Post #1

Detective Godzilla
Group Icon
Group: Moderation team
Posts: 3,096
Releases: 259
On Forums: 8 years 8 months
Thanks: 9013 time(s)
Russian Federation


(IMG:https://metalarea.org/images/audiocovers/2019_Jun/acov_tid323151_thumb.jpg)

*Artist: Cold Body Radiation
*Album: I Fell Into The Unknown Light
*Year: 2019
*Genre: Shoegaze/Atmospheric Black Metal
*Country: Netherlands (IMG:https://metalarea.org/forum/style_images/flags/Netherlands.png)
*Format: mp3@CBR320kbps
*Size: 92MB

Tracklist:
01. I Fell Into the Unknown Light 06:26
02. Storm 05:24
03. The Body Leaver 06:40
04. The Eternal 05:45
05. When the Fading Becomes Unbearable 04:33
06. Into Nothing 04:52
07. Leaving the Light 06:03
******************************
Total playing time: 39:43



Extended info
FLAC-rip

recorded 2019 by m.


Technical info
(IMG:https://metalarea.org/images/spectrogram/2019_Jun/660ec2377cd341586529aad7f1f03d03.png)
Input File: 04_the_eternal.mp3
Channels : 2
Sample Rate : 44100
Precision : 16-bit
Duration : 00:05:45.49 = 15236021 samples = 25911.6 CDDA sectors
File Size : 14.0M
Bit Rate : 324k
Sample Encoding: MPEG audio (layer I, II or III)
Comments :
Title=the eternal
Artist=cold body radiation
Album=i fell into the unknown light
Tracknumber=4
Year=2019



Register


Go to the top of the page
  Insert nick Quick quote
+Quote Post
 
Start new topic
Replies (1 - 5)
post Jun 18 2019, 17:11:14
Post #2

Правь статус, ####!111
**************
Group: Металариец
Posts: 43,332
Releases: 654
On Forums: 10 years 4 months
Thanks: 34406 time(s)
Russian Federation


Дружище, а че в нефор кинул?
Go to the top of the page
  Insert nick Quick quote
+Quote Post
post Jun 18 2019, 17:15:53
Post #3

Detective Godzilla
Group Icon
Group: Moderation team
Posts: 3,096
Releases: 259
On Forums: 8 years 8 months
Thanks: 9013 time(s)
Russian Federation


vosmidesijatye, Да там бм постольку-поскольку. Релиз больше шугейз, а бм-составляющая так, отголосками.


Thanks:
Go to the top of the page
  Insert nick Quick quote
+Quote Post
post Jun 18 2019, 17:16:30
Post #4

Правь статус, ####!111
**************
Group: Металариец
Posts: 43,332
Releases: 654
On Forums: 10 years 4 months
Thanks: 34406 time(s)
Russian Federation


@320

Register
Go to the top of the page
  Insert nick Quick quote
+Quote Post
post Jul 7 2019, 23:49:57
Post #5

Group: Подсевший
Posts: 16
Releases: 0
From: Симбирск
On Forums: 4 years 3 months
Thanks: 0 time(s)
Russian Federation


Да что-то даже на блекгейз не тянет, пост как пост. Но мне ничего, фоном заходит.
Go to the top of the page
  Insert nick Quick quote
+Quote Post
post Jul 9 2019, 17:05:54
Post #6

Два Литра
**
Group: Завсегдатай
Posts: 186
Releases: 0
On Forums: 4 months 1 week
Thanks: 83 time(s)
Unknown


Музыка которая прекрасно идет фоном
Go to the top of the page
  Insert nick Quick quote
+Quote Post

Reply to this topicStart new topic
1 User(s) are reading this topic (1 Guests and 0 Anonymous Users)
0 Members:

 



- Lo-Fi Version Support form
Copyrights and abuse reports form
Time is now: 17th October 2019 - 07:34:48