Welcome Guest ( Log In | Register )

> И неформату есть предел.

Рэп/хип-хоп/шансон/поп удаляются. Для них есть свои порталы.

> Yes - Tales From Topographic Oceans (1973), Progressive Rock (D4)
post Jun 19 2019, 13:05:53
Post #1

Правь статус, ####!111
**************
Group: Металариец
Posts: 41,291
Releases: 606
On Forums: 10 years 1 month
Thanks: 31975 time(s)
Russian Federation


(IMG:http://metalarea.org/images/audiocovers/2019_Jun/acov_tid323173_thumb.jpg)

*Artist: Yes
*Album: Tales From Topographic Oceans
*Year: 1973
*Genre: Progressive Rock
*Country: United Kingdom (IMG:http://metalarea.org/forum/style_images/flags/United%20Kingdom.png)
*Format: mp3@CBR320kbps
*Size: 208MB

Tracklist:
CD1:

1. The Revealing Science Of God / Dance Of The Dawn 20:23
2. The Remembering / High The Memory 20:33

CD2:

1. 'The Ancient' / Giants Under The Sun 18:32
2. Ritual / Nous Sommes Du Soleil 21:31
******************************
Total playing time: 1:20:59

(IMG:http://metalarea.org/images/youtube.png)

Technical info
(IMG:http://metalarea.org/images/spectrogram/2019_Jun/ea62b3762438baf4afed48cf600b6905.png)
Input File: 01. The Revealing Science Of God - Dance Of The Dawn.mp3
Channels : 2
Sample Rate : 44100
Precision : 16-bit
Duration : 00:20:23.62 = 53961642 samples = 91771.5 CDDA sectors
File Size : 49.0M
Bit Rate : 320k
Sample Encoding: MPEG audio (layer I, II or III)
Comments :
Title=The Revealing Science Of God / Dance Of The Dawn
Artist=Yes
Album=Tales From Topographic Oceans CD1
Tracknumber=1/2
Year=1973
Genre=Progressive Rock



Register


Thanks:
Go to the top of the page
  Insert nick Quick quote
+Quote Post
 
Start new topic
Replies (1 - 7)
post Jun 19 2019, 21:50:16
Post #2

Правь статус, ####!111
**************
Group: Металариец
Posts: 41,291
Releases: 606
On Forums: 10 years 1 month
Thanks: 31975 time(s)
Russian Federation


Богоподобный релиз.
Go to the top of the page
  Insert nick Quick quote
+Quote Post
post Jun 19 2019, 23:12:58
Post #3
BAN
Banned till
Aug 2 2019, 05:25:51



Йес в расцвете сил, да. Хотя мне Relayer больше нравится.
Go to the top of the page
  Insert nick Quick quote
+Quote Post
post Jun 23 2019, 17:41:06
Post #4

Правь статус, ####!111
**************
Group: Металариец
Posts: 41,291
Releases: 606
On Forums: 10 years 1 month
Thanks: 31975 time(s)
Russian Federation


ЦИТАТА(adeptus_custodes @ Jun 20 2019, 02:12:58) *
Йес в расцвете сил, да. Хотя мне Relayer больше нравится.


В топовых работах у них тоже, да.
Go to the top of the page
  Insert nick Quick quote
+Quote Post
post Jun 25 2019, 18:35:07
Post #5

Маньяк
**********
Group: Металариец
Posts: 1,389
Releases: 0
From: Харьков
On Forums: 9 years 9 months
Thanks: 509 time(s)
Ukraine


Слабейший релиз периода 71-74 гг., на мой взгляд. Да и та же Drama нравится больше.
Go to the top of the page
  Insert nick Quick quote
+Quote Post
post Jun 25 2019, 18:41:16
Post #6

Правь статус, ####!111
**************
Group: Металариец
Posts: 41,291
Releases: 606
On Forums: 10 years 1 month
Thanks: 31975 time(s)
Russian Federation


ЦИТАТА(Ghostb @ Jun 25 2019, 21:35:07) *
Слабейший релиз периода 71-74 гг., на мой взгляд. Да и та же Drama нравится больше.


Категорически не шаришь (IMG:style_emoticons/default/25.gif)
Go to the top of the page
  Insert nick Quick quote
+Quote Post
post Jun 25 2019, 18:44:04
Post #7

член общества защитников попсы
******
Group: Металариец
Posts: 610
Releases: 1
From: Полтава
On Forums: 8 years 9 months
Thanks: 317 time(s)
Ukraine


ЦИТАТА(Ghostb @ Jun 25 2019, 20:35:07) *
Слабейший релиз периода 71-74 гг.

Однозначно, альбом по-хорошему нужно было безжалостно чистить и оставлять где-то половину. Для меня он слабее почти всего вышедшего в 70-87, хотя там жанровая стилистика прыгала нехило. Плюс, мощнейший Магнификейшн, стоящий вровеь с лучшими классическими работы команды.


Thanks:
(1) Ghostb,
Go to the top of the page
  Insert nick Quick quote
+Quote Post
post Jun 25 2019, 18:44:24
Post #8

Маньяк
**********
Group: Металариец
Posts: 1,389
Releases: 0
From: Харьков
On Forums: 9 years 9 months
Thanks: 509 time(s)
Ukraine


ЦИТАТА(vosmidesijatye @ Jun 25 2019, 20:41:16) *
Категорически не шаришь

Скучный и затянутый альбом. А все из-за концепции.

ЦИТАТА(Snowblind @ Jun 25 2019, 20:44:04) *
Однозначно, альбом по-хорошему нужно было безжалостно чистить и оставлять где-то половину

+
Go to the top of the page
  Insert nick Quick quote
+Quote Post

Reply to this topicStart new topic
1 User(s) are reading this topic (1 Guests and 0 Anonymous Users)
0 Members:

 



- Lo-Fi Version Support form
Copyrights and abuse reports form
Time is now: 22nd July 2019 - 06:26:16