Welcome Guest ( Log In | Register )

> Chaos And Technocracy - Chaos And Technocracy [ep] (2017), Progressive Thrash Metal
post Jun 22 2019, 00:30:57
Post #1

Подвал
**************
Group: Металариец
Posts: 15,983
Releases: 9146
From: Far East (Khabarovsk)
On Forums: 12 years 3 months
Thanks: 102754 time(s)
Russian Federation


(IMG:http://metalarea.org/images/audiocovers/2019_Jun/acov_tid323311_thumb.jpg)

*Artist: Chaos And Technocracy
*Album: Chaos And Technocracy [ep]
*Year: 2017
*Genre: Progressive Thrash Metal
*Country: Italy (IMG:http://metalarea.org/forum/style_images/flags/Italy.png)
*Format: mp3@CBR192kbps
*Size: 27MB

Tracklist:
1. The Others 03:28
2. A Better World 04:58
3. Believe Me 06:28
4. Savior 04:49
******************************
Total playing time: 19:43



Technical info
(IMG:http://metalarea.org/images/spectrogram/2019_Jun/915b71ecb4b405563a73ad3900e7835b.png)
Input File: 01-The Others.mp3
Channels : 2
Sample Rate : 44100
Precision : 16-bit
Duration : 00:03:28.00 = 9172712 samples = 15599.9 CDDA sectors
File Size : 4.99M
Bit Rate : 192k
Sample Encoding: MPEG audio (layer I, II or III)
Comments :
Title=The Others
Artist=Chaos And Technocracy (Ita)
Album=Chaos And Technocracy
Tracknumber=01
Year=2017
Genre=Metal



Register


Go to the top of the page
  Insert nick Quick quote
+Quote Post
 
Start new topic
Replies (1 - 1)
post Apr 8 2021, 11:58:21
Post #2

Шесть Литров
******
Group: Металариец
Posts: 593
Releases: 0
On Forums: 9 years 1 week
Thanks: 43 time(s)
Belarus


Перезалейте,пожалуйста
Go to the top of the page
  Insert nick Quick quote
+Quote Post

Reply to this topicStart new topic
1 User(s) are reading this topic (1 Guests and 0 Anonymous Users)
0 Members:

 



- Lo-Fi Version Support form
Copyrights and abuse reports form
Time is now: 13th May 2021 - 04:08:11