Welcome Guest ( Log In | Register )

> Saitor - Demo [demo] (1989), Thrash Metal
post Jun 25 2019, 13:27:27
Post #1

Digital Regency
*****
Group: Металариец
Posts: 406
Releases: 174
From: Chisinau
On Forums: 13 years 8 months
Thanks: 2352 time(s)
Romania


(IMG:https://metalarea.org/images/audiocovers/nocover.gif)

*Artist: Saitor
*Album: Demo [demo]
*Year: 1989
*Genre: Thrash Metal
*Country: United States (IMG:https://metalarea.org/forum/style_images/flags/United%20States.png)
*Format: mp3@CBR320kbps
*Size: 22MB

Tracklist:
1. A Little Lie 03:53
2. Goodbye 03:35
3. The Child 03:19
******************************
Total playing time: 10:47

Technical info
(IMG:https://metalarea.org/images/spectrogram/2019_Jun/0f1417fcb80774e26537506ba4cd711e.png)
Input File: 01. A Little Lie.mp3
Channels : 2
Sample Rate : 44100
Precision : 16-bit
Duration : 00:03:47.01 = 10011009 samples = 17025.5 CDDA sectors
File Size : 9.08M
Bit Rate : 320k
Sample Encoding: MPEG audio (layer I, II or III)
Comments :
Title=A Little Lie
Artist=Saitor
Album=Demo
Tracknumber=01
Year=1989
Genre=Thrash Metal



Register


Go to the top of the page
  Insert nick Quick quote
+Quote Post
 
Start new topic
Replies (1 - 2)
post Sep 29 2022, 17:10:09
Post #2

Подвал
**************
Group: Металариец
Posts: 18,090
Releases: 10364
From: Far East (Khabarovsk)
On Forums: 13 years 10 months
Thanks: 120395 time(s)
Russian Federation


Похоже это фины (pre-Nomicon).
Go to the top of the page
  Insert nick Quick quote
+Quote Post
post Sep 29 2022, 17:51:32
Post #3

Forever Underground
**************
Group: Металариец
Posts: 10,561
Releases: 0
On Forums: 7 years 7 months
Thanks: 15761 time(s)
Unknown


QUOTE(Proteus_666 @ Sep 29 2022, 18:10:09) *
Похоже это фины (pre-Nomicon).

(IMG:style_emoticons/default/27.gif) Country: Finland (NOT United States)
https://www.metal-archives.com/albums/Saitor/Demo_2/186152
Go to the top of the page
  Insert nick Quick quote
+Quote Post

Reply to this topicStart new topic
1 User(s) are reading this topic (1 Guests and 0 Anonymous Users)
0 Members:

 



- Lo-Fi Version Support form
Copyrights and abuse reports form
Time is now: 3rd December 2022 - 01:06:51