Welcome Guest ( Log In | Register )

> 

Здесь релизы с живыми прямыми ссылками на lossless

> Deathgeist - 666 (2019), Old School Thrash Metal
post Jun 30 2019, 17:04:07
Post #1

Правь статус, ####!111
**************
Group: Металариец
Posts: 18,575
Releases: 12575
From: Г.Харьков
On Forums: 7 years 4 months
Thanks: 213060 time(s)
Unknown


(IMG:https://metalarea.org/images/audiocovers/2019_Jun/acov_tid323727_thumb.jpg)

*Artist: Deathgeist
*Album: 666
*Year: 2019
*Genre: Old School Thrash Metal
*Country: Brazil (IMG:https://metalarea.org/forum/style_images/flags/Brazil.png)
*Format: mp3@CBR320kbps
*Size: 71MB

Tracklist:
1. Darkness Around
2. 666
3. Domain
4. Human Slaughter
5. Black Moon Rites
6. Creepshow
7. Virtual Murder
8. Returning to Sodom
9. The Man Who Was Death
******************************
Total playing time: 30:47




Extended info
CD-Rip
Maurício Bertoni Bass (2017-present)
See also: ex-Brutal Faith, ex-DamageWar, ex-Güdenläwd, ex-Panzer, ex-Portas Negras, ex-Sakrah, ex-Voiden, ex-Reviolence, ex-Mystic, ex-Pink Dolls
Goro Drums (2017-present)
See also: Prepared to Kill, ex-Maligna, ex-Fire Diamond, ex-Speed Metal Hell, ex-Excalibur
Victor Regep Guitars (2017-present)
See also: ex-Bywar
Adriano Perfetto Guitars, Vocals (2017-present)
See also: Timor Trail, ex-Bywar


Technical info
(IMG:https://metalarea.org/images/spectrogram/2019_Jun/ff44893e4bfec0902753a22e67fac610.png)
Input File: 04 - Human Slaughter.mp3
Channels : 2
Sample Rate : 44100
Precision : 16-bit
Duration : 00:03:30.72 = 9292620 samples = 15803.8 CDDA sectors
File Size : 8.43M
Bit Rate : 320k
Sample Encoding: MPEG audio (layer I, II or III)
Comments :
Title=Human Slaughter
Artist=Deathgeist
Album=666
Tracknumber=4
Year=2019
Genre=Thrash Metal



Register


Go to the top of the page
  Insert nick Quick quote
+Quote Post
 
Start new topic
Replies (1 - 4)
post Jun 30 2019, 18:28:40
Post #2

Правь статус, ####!111
**************
Group: Металариец
Posts: 18,575
Releases: 12575
From: Г.Харьков
On Forums: 7 years 4 months
Thanks: 213060 time(s)
Unknown


Cloud Mail 320
Register


Go to the top of the page
  Insert nick Quick quote
+Quote Post
post Jul 4 2019, 14:57:56
Post #3

Правь статус, ####!111
**************
Group: Металариец
Posts: 18,575
Releases: 12575
From: Г.Харьков
On Forums: 7 years 4 months
Thanks: 213060 time(s)
Unknown


Отличный олдовый душевный треш играют Бразильцы (IMG:style_emoticons/default/20.gif)
Пожалуй-за последние месяцы самый лучший который я слушал.
Go to the top of the page
  Insert nick Quick quote
+Quote Post
post Jul 4 2019, 21:14:30
Post #4

Литр
*
Group: Подсевший
Posts: 58
Releases: 0
On Forums: 10 months 1 week
Thanks: 22 time(s)
Russian Federation


Хороший альбом, бывший вокалист Bywar здесь.
Go to the top of the page
  Insert nick Quick quote
+Quote Post
post Aug 31 2019, 23:47:47
Post #5

Правь статус, ####!111
**************
Group: Металариец
Posts: 18,575
Releases: 12575
From: Г.Харьков
On Forums: 7 years 4 months
Thanks: 213060 time(s)
Unknown


FLAC (Tracks) 228 mb
Register


Thanks:
Go to the top of the page
  Insert nick Quick quote
+Quote Post

Reply to this topicStart new topic
1 User(s) are reading this topic (1 Guests and 0 Anonymous Users)
0 Members:

 



- Lo-Fi Version Support form
Copyrights and abuse reports form
Time is now: 21st September 2019 - 06:30:54