Welcome Guest ( Log In | Register )

> И неформату есть предел.

Рэп/хип-хоп/шансон/поп удаляются. Для них есть свои порталы.

> Brant Bjork - Mankind Woman (2018), Stoner Rock (D9)
post Jun 30 2019, 21:06:11
Post #1

Cultist
**************
Group: Металариец
Posts: 4,285
Releases: 1330
From: Koenigsberg
On Forums: 13 years 5 months
Thanks: 8790 time(s)
Russian Federation


(IMG:http://metalarea.org/images/audiocovers/2019_Jun/acov_tid323741_thumb.jpg)

*Artist: Brant Bjork
*Album: Mankind Woman
*Year: 2018
*Genre: Stoner Rock
*Country: United States (IMG:http://metalarea.org/forum/style_images/flags/United%20States.png)
*Format: mp3@CBR320kbps
*Size: 90MB

Tracklist:
1 Chocolatize 2:35
2 Lazy Wizards 2:57
3 Pisces 3:54
4 Charlie Gin 2:11
5 Mankind Woman 4:32
6 Swagger & Sway 4:02
7 Somebody 4:43
8 Pretty Hairy 3:53
9 Brand New Old Times 2:05
10 1968 3:15
11 Nation of Indica 4:49
******************************
Total playing time: 38:56



Technical info
(IMG:http://metalarea.org/images/spectrogram/2019_Jun/edb5491499d42d089527d5f3a6a94547.png)
Input File: 06 - Swagger & Sway.mp3
Channels : 2
Sample Rate : 44100
Precision : 16-bit
Duration : 00:04:02.41 = 10690105 samples = 18180.5 CDDA sectors
File Size : 9.79M
Bit Rate : 323k
Sample Encoding: MPEG audio (layer I, II or III)
Comments :
Title=Swagger & Sway
Artist=Brant Bjork
Album=Mankind Woman
Tracknumber=6
Year=2018
Genre=Psychedelic | Stoner Rock



Register


Go to the top of the page
  Insert nick Quick quote
+Quote Post
 
Start new topic
Replies (1 - 7)
post Jun 30 2019, 21:35:39
Post #2

Правь статус, ####!111
**************
Group: Металариец
Posts: 46,460
Releases: 717
On Forums: 10 years 11 months
Thanks: 38976 time(s)
Russian Federation


Отличный дядя.

Хендрикса почитает.

Даже можно сказать культ в кругах ценителей подобной музыки.
Go to the top of the page
  Insert nick Quick quote
+Quote Post
post Jul 1 2019, 06:57:15
Post #3

Cultist
**************
Group: Металариец
Posts: 4,285
Releases: 1330
From: Koenigsberg
On Forums: 13 years 5 months
Thanks: 8790 time(s)
Russian Federation


ЦИТАТА(vosmidesijatye @ Jun 30 2019, 23:35:39) *
Отличный дядя.

да тут и альбом убойнейший (IMG:style_emoticons/default/pray.gif)
Go to the top of the page
  Insert nick Quick quote
+Quote Post
post Jul 1 2019, 08:22:40
Post #4

Правь статус, ####!111
**************
Group: Металариец
Posts: 46,460
Releases: 717
On Forums: 10 years 11 months
Thanks: 38976 time(s)
Russian Federation


Ну мне больше понравился его следующий - Jaqoozi (IMG:style_emoticons/default/smile3.gif)
Go to the top of the page
  Insert nick Quick quote
+Quote Post
post Jul 1 2019, 08:26:19
Post #5

Cultist
**************
Group: Металариец
Posts: 4,285
Releases: 1330
From: Koenigsberg
On Forums: 13 years 5 months
Thanks: 8790 time(s)
Russian Federation


Мне наоборот, тут - шлягер на шлягере, там - порожняк.
Go to the top of the page
  Insert nick Quick quote
+Quote Post
post Jul 1 2019, 08:39:47
Post #6

Правь статус, ####!111
**************
Group: Металариец
Posts: 46,460
Releases: 717
On Forums: 10 years 11 months
Thanks: 38976 time(s)
Russian Federation


ЦИТАТА(TDM @ Jul 1 2019, 10:26:19) *
Мне наоборот, тут - шлягер на шлягере, там - порожняк.


(IMG:https://b.radikal.ru/b13/1907/03/6821c4cafe6d.jpg)
Go to the top of the page
  Insert nick Quick quote
+Quote Post
post Jul 1 2019, 08:45:57
Post #7

my church is black
*********
Group: Металариец
Posts: 957
Releases: 3
On Forums: 2 years 11 months
Thanks: 607 time(s)
Cape Verde


А мне чёто не вставило, более тягучий стонер люблю.
Go to the top of the page
  Insert nick Quick quote
+Quote Post
post Jan 29 2020, 19:15:04
Post #8

Правь статус, ####!111
**************
Group: Металариец
Posts: 46,460
Releases: 717
On Forums: 10 years 11 months
Thanks: 38976 time(s)
Russian Federation


Ща переслушиваю - услада для ушей. (IMG:style_emoticons/default/pray.gif)
Go to the top of the page
  Insert nick Quick quote
+Quote Post

Reply to this topicStart new topic
1 User(s) are reading this topic (1 Guests and 0 Anonymous Users)
0 Members:

 



- Lo-Fi Version Support form
Copyrights and abuse reports form
Time is now: 31st May 2020 - 08:09:25