Welcome Guest ( Log In | Register )

> И неформату есть предел.

Рэп/хип-хоп/шансон/поп удаляются. Для них есть свои порталы.

> Romowe Rikoito - Nawamār (2016), Neofolk (D5)
post Jul 5 2019, 14:56:30
Post #1

the faceless one
Group Icon
Group: S-moderation team
Posts: 9,206
Releases: 1880
On Forums: 11 years 1 week
Thanks: 110375 time(s)
Russian Federation


(IMG:http://metalarea.org/images/audiocovers/2019_Jul/acov_tid323968_thumb.jpg)

*Artist: Romowe Rikoito
*Album: Nawamār
*Year: 2016
*Genre: Neofolk
*Country: Russian Federation (IMG:http://metalarea.org/forum/style_images/flags/Russian%20Federation.png)
*Format: mp3@CBR320kbps
*Size: 97MB

Tracklist:
1. T T T 03:25
2. En T Fōrtan 03:57
3. En T Pāustrei 04:42
4. En T Rāmawan 04:16
5. Tengja Ten Tālis 05:18
6. Rōma[nā]wa 02:30
7. Īwagarjan 04:08
8. I a W a M ā R 04:30
9. Waīstis waistā 05:08
10. Rāmawas Wartā 04:25
******************************
Total playing time: 42:19



Extended info
Dangus ‎– DNG 053


Technical info
(IMG:http://metalarea.org/images/spectrogram/2019_Jul/4c1aa9743292994b4bf8c9516255380a.png)
Input File: Romowe Rikoito - 01 - T T T.mp3
Channels : 2
Sample Rate : 44100
Precision : 16-bit
Duration : 00:03:25.90 = 9080058 samples = 15442.3 CDDA sectors
File Size : 8.23M
Bit Rate : 320k
Sample Encoding: MPEG audio (layer I, II or III)
Comments :
Title=T T T
Artist=Romowe Rikoito
Album=Nawamār
Tracknumber=01
Year=2016
Genre=Acoustic



Register


Go to the top of the page
  Insert nick Quick quote
+Quote Post
 
Start new topic
Replies (1 - 5)
post Jul 5 2019, 15:02:13
Post #2

Правь статус, ####!111
**************
Group: Металариец
Posts: 42,368
Releases: 641
On Forums: 10 years 2 months
Thanks: 33212 time(s)
Russian Federation


@320

Register
Go to the top of the page
  Insert nick Quick quote
+Quote Post
post Jul 9 2019, 12:40:01
Post #3

poison creosote
******
Group: Металариец
Posts: 695
Releases: 1
On Forums: 2 years 2 months
Thanks: 355 time(s)
Iceland


Попытался погонять, но вокал чёто мне совсем не нравится такой.
Go to the top of the page
  Insert nick Quick quote
+Quote Post
post Jul 9 2019, 17:08:03
Post #4

Два Литра
**
Group: Завсегдатай
Posts: 139
Releases: 0
On Forums: 2 months 2 weeks
Thanks: 47 time(s)
Unknown


ЦИТАТА(Krosis @ Jul 9 2019, 12:40:01) *
Попытался погонять, но вокал чёто мне совсем не нравится такой.


Солидарен. Музыка хороша, но вокал как то совсем мимо
Go to the top of the page
  Insert nick Quick quote
+Quote Post
post Jul 13 2019, 04:32:54
Post #5

Правь статус, ####!111
**************
Group: Металариец
Posts: 3,018
Releases: 0
From: Москва
On Forums: 11 years 6 months
Thanks: 433 time(s)
Russian Federation


Хороший альбом .
Go to the top of the page
  Insert nick Quick quote
+Quote Post
post Jul 13 2019, 07:04:55
Post #6

Cultist
**************
Group: Металариец
Posts: 3,769
Releases: 1219
From: Koenigsberg
On Forums: 12 years 7 months
Thanks: 7217 time(s)
Russian Federation


Да уже литовцы они)
Go to the top of the page
  Insert nick Quick quote
+Quote Post

Reply to this topicStart new topic
1 User(s) are reading this topic (1 Guests and 0 Anonymous Users)
0 Members:

 



- Lo-Fi Version Support form
Copyrights and abuse reports form
Time is now: 21st August 2019 - 15:22:17