Welcome Guest ( Log In | Register )

> И неформату есть предел.

Рэп/хип-хоп/шансон/поп удаляются. Для них есть свои порталы.

 
Reply to this topicStart new topic
> Bad Religion - Age Of Unreason (2019), Punk-Rock (D4)
post Jul 5 2019, 16:24:51
Post #1

Три Литра
***
Group: Завсегдатай
Posts: 288
Releases: 4
On Forums: 12 years 4 months
Thanks: 232 time(s)
Russian Federation


(IMG:http://metalarea.org/images/audiocovers/2019_Jul/acov_tid323972_thumb.jpg)

*Artist: Bad Religion
*Album: Age Of Unreason
*Year: 2019
*Genre: Punk-Rock
*Country: United States (IMG:http://metalarea.org/forum/style_images/flags/United%20States.png)
*Format: mp3@CBR320kbps
*Size: 86MB

Tracklist:
01. Chaos from Within 1:50
02. My Sanity 2:58
03. Do the Paranoid Style 1:45
04. The Approach 2:25
05. Lose Your Head 2:50
06. End of History 2:47
07. Age of Unreason 2:40
08. Candidate 2:45
09. Faces of Grief 1:04
10. Old Regime 2:42
11. Big Black Dog 2:06
12. Downfall 2:36
13. Since Now 1:43
14. What Tomorrow Brings 3:09
15. The Kids Are Alt-Right (CD hidden track) 2:43
16. The Profane Rights of Man (CD bonus track)2:07
******************************
Total playing time: 38:10

(IMG:http://metalarea.org/images/youtube.png)

Extended info
Greg Graffin – lead vocals
Brett Gurewitz – guitar
Brian Baker – guitar
Mike Dimkich – guitar
Jay Bentley – bass
Jamie Miller – drums


Technical info
(IMG:http://metalarea.org/images/spectrogram/2019_Jul/fd101991c57c0258f1e8559c4c06688b.png)
Input File: 02 - My Sanity.mp3
Channels : 2
Sample Rate : 48000
Precision : 16-bit
Duration : 00:02:58.51 = 8568576 samples ~ 13388.4 CDDA sectors
File Size : 7.14M
Bit Rate : 320k
Sample Encoding: MPEG audio (layer I, II or III)
Comments :
Title=My Sanity
Artist=Bad Religion
Album=Age Of Unreason
Tracknumber=02/16
Year=2019
Genre=Punk rock
Discnumber=1



Register


Go to the top of the page
  Insert nick Quick quote
+Quote Post

Reply to this topicStart new topic
1 User(s) are reading this topic (1 Guests and 0 Anonymous Users)
0 Members:

 



- Lo-Fi Version Support form
Copyrights and abuse reports form
Time is now: 22nd August 2019 - 23:47:57