Welcome Guest ( Log In | Register )

> Ptarmigan - Sounds Like Black Metal [ep] (2014), Black/Death Metal
post Jul 8 2019, 09:20:23
Post #1

Cultist
**************
Group: Металариец
Posts: 4,396
Releases: 1335
From: Koenigsberg
On Forums: 14 years 7 months
Thanks: 9195 time(s)
Russian Federation


(IMG:http://metalarea.org/images/audiocovers/2019_Jul/acov_tid324074_thumb.jpg)

*Artist: Ptarmigan
*Album: Sounds Like Black Metal [ep]
*Year: 2014
*Genre: Black/Death Metal
*Country: United States (IMG:http://metalarea.org/forum/style_images/flags/United%20States.png)
*Format: mp3@CBR320kbps
*Size: 56MB

Tracklist:
1.In Praise of Satan 04:27
2.Ikke vær så alvorlig 03:03
3.I Am the One, as Foretold 08:01
4.Angels of the Seventh Dawn 08:10
******************************
Total playing time: 23:41

Technical info
(IMG:http://metalarea.org/images/spectrogram/2019_Jul/ad0ddc9e98907ec3ac9370b1a355b129.png)
Input File: 02 - Ikke Vær Så Alvorlig.mp3
Channels : 2
Sample Rate : 44100
Precision : 16-bit
Duration : 00:03:03.99 = 8113959 samples = 13799.2 CDDA sectors
File Size : 7.47M
Bit Rate : 325k
Sample Encoding: MPEG audio (layer I, II or III)
Comments :
Title=Ikke Vær Så Alvorlig
Artist=Ptarmigan
Album=Sounds Like Black Metal EP
Tracknumber=2
Year=2014
Genre=Black/Death Metal



Register


Go to the top of the page
  Insert nick Quick quote
+Quote Post
 
Start new topic
Replies (1 - 1)
post Jul 8 2019, 11:35:31
Post #2

Маньяк
**********
Group: Металариец
Posts: 1,119
Releases: 0
On Forums: 10 years 2 months
Thanks: 539 time(s)
Unknown




Thanks:
Go to the top of the page
  Insert nick Quick quote
+Quote Post

Reply to this topicStart new topic
2 User(s) are reading this topic (2 Guests and 0 Anonymous Users)
0 Members:

 



- Lo-Fi Version Support form
Copyrights and abuse reports form
Time is now: 4th August 2021 - 12:44:12