Welcome Guest ( Log In | Register )

> И неформату есть предел.

Рэп/хип-хоп/шансон/поп удаляются. Для них есть свои порталы.

> Северный Флот - Иnой (2018), Hard-Rock/Alternative
post Jul 8 2019, 10:01:29
Post #1

Три Литра
***
Group: Завсегдатай
Posts: 299
Releases: 4
On Forums: 12 years 8 months
Thanks: 243 time(s)
Russian Federation


(IMG:http://metalarea.org/images/audiocovers/2019_Jul/acov_tid324076_thumb.jpg)

*Artist: Северный Флот
*Album: Иnой
*Year: 2018
*Genre: Hard-Rock/Alternative
*Country: Russian Federation (IMG:http://metalarea.org/forum/style_images/flags/Russian%20Federation.png)
*Format: mp3@CBR320kbps
*Size: 80MB

Tracklist:
1. Иной (feat Нуки) 4:55
2. Здравствуй, страна! 4:28
3. Ленинград 3:35
4. Удачи солдат 3:57
5. Время любить 4:14
6. Колыбельная 3:39
7. Странник 3:39
8. Самая тёмная ночь 3:26
9. Вечный 3:42
******************************
Total playing time: 35:35

(IMG:http://metalarea.org/images/youtube.png)

Extended info
Группа «Северный Флот»:
Александр «Ренегат» Леонтьев — вокал, гитара, акустическая гитара;
Яков Цвиркунов — гитара;
Александр Куликов — бас-гитара;
Павел Сажинов — клавишные инструменты;
Александр «Поручик» Щиголев — ударные, электронная перкуссия, бубен.

Приглашённые участники:
Дария «Нуки» Ставрович — вокал (1);
Гуля Наумова — скрипка (8), бэк-вокал (3);
Роман Парыгин — труба (6);


Technical info
(IMG:http://metalarea.org/images/spectrogram/2019_Jul/7aa286d0175a7038b7df3cde8c26fad3.png)
Input File: 01 - ИNОЙ (feat. Нуки).mp3
Channels : 2
Sample Rate : 44100
Precision : 16-bit
Duration : 00:04:55.88 = 13048264 samples = 22190.9 CDDA sectors
File Size : 11.8M
Bit Rate : 320k
Sample Encoding: MPEG audio (layer I, II or III)
Comments :
Title=ИNОЙ (feat. Нуки)
Artist=Северный Флот
Album=ИNОЙ
Tracknumber=01/09
Year=2018
Discnumber=1



Register


Go to the top of the page
  Insert nick Quick quote
+Quote Post
 
Start new topic
Replies (1 - 5)
post Jul 8 2019, 12:21:45
Post #2

South Of Heaven /адепт ВУДУ
**************
Group: Металариец
Posts: 13,960
Releases: 9
On Forums: 9 years 8 months
Thanks: 5297 time(s)
Unknown


Кто такой Ипой? (IMG:style_emoticons/default/crazy.gif)



Go to the top of the page
  Insert nick Quick quote
+Quote Post
post Jul 8 2019, 12:24:59
Post #3

Правь статус, ####!111
**************
Group: Металариец
Posts: 44,641
Releases: 689
On Forums: 10 years 6 months
Thanks: 35912 time(s)
Russian Federation


ЦИТАТА(avkruchinin @ Jul 8 2019, 15:21:45) *
Кто такой Ипой? (IMG:style_emoticons/default/crazy.gif)


Андрюш, это английская N, а не русская Пэ (IMG:style_emoticons/default/genius.gif)
Go to the top of the page
  Insert nick Quick quote
+Quote Post
post Jul 8 2019, 12:52:48
Post #4

Мегаманьяк
***********
Group: Металариец
Posts: 1,849
Releases: 0
From: Украина, Днепр
On Forums: 6 years 6 months
Thanks: 1449 time(s)
Ukraine


ЦИТАТА(avkruchinin @ Jul 8 2019, 12:21:45) *
Кто такой Ипой? (IMG:style_emoticons/default/crazy.gif)

Выучили англ. алфавит только до буквы "n" - вот и решили "козырнуть", что непонятного то? (IMG:style_emoticons/default/headcrab.png)
Go to the top of the page
  Insert nick Quick quote
+Quote Post
post Jul 8 2019, 13:01:19
Post #5

Ω
Group Icon
Group: V.I.P
Posts: 6,570
Releases: 77
From: Kænugarður
On Forums: 13 years 4 months
Thanks: 9664 time(s)
Ukraine


ЦИТАТА(avkruchinin @ 8th July 2019 - 14:21:45) *
Кто такой Ипой?

Тот, которого будят. Проснись, Ипой!



Go to the top of the page
  Insert nick Quick quote
+Quote Post
post Jul 9 2019, 09:28:48
Post #6

Четыре Литра
****
Group: Металариец
Posts: 380
Releases: 0
From: Кирово-Чепецк
On Forums: 4 years 8 months
Thanks: 51 time(s)
Russian Federation


Сапрыкин знатно его обосрал
Go to the top of the page
  Insert nick Quick quote
+Quote Post

Reply to this topicStart new topic
1 User(s) are reading this topic (1 Guests and 0 Anonymous Users)
0 Members:

 



- Lo-Fi Version Support form
Copyrights and abuse reports form
Time is now: 16th December 2019 - 08:58:10