Welcome Guest ( Log In | Register )

> И неформату есть предел.

Рэп/хип-хоп/шансон/поп удаляются. Для них есть свои порталы.

> Troum & Monocube - Contemplator Caeli [collaboration] (2019), Ambient | Drone (D26)(D4)
post Jul 8 2019, 14:57:13
Post #1

####!111
**************
Group: Металариец
Posts: 3,715
Releases: 125
From: The Mountain Of DOOM
On Forums: 11 years 10 months
Thanks: 5234 time(s)
Russian Federation


(IMG:http://metalarea.org/images/audiocovers/2019_Jul/acov_tid324084_thumb.jpg)

*Artist: Troum & Monocube
*Album: Contemplator Caeli [collaboration]
*Year: 2019
*Genre: Ambient | Drone
*Country: Germany (IMG:http://metalarea.org/forum/style_images/flags/Germany.png) | Ukraine (IMG:http://metalarea.org/forum/style_images/flags/Ukraine.png)
*Format: mp3@CBR320kbps
*Size: 83MB

Tracklist:
1. Circularis et Perpetua 08:00
2. Precessio Aequinoctiorum 10:15
3. Stellae Errantis 08:04
4. Digressio 09:20
******************************
Total playing time: 35:39



Extended info
Мягкий гитарный дроун, возвращающий во времена Maeror Tri (Venenum)


Technical info
(IMG:http://metalarea.org/images/spectrogram/2019_Jul/5d7a2e9be240d368d4e8b640b6eca7d8.png)
Input File: 01 Circularis et Perpetua.mp3
Channels : 2
Sample Rate : 44100
Precision : 16-bit
Duration : 00:08:00.68 = 21198076 samples = 36051.1 CDDA sectors
File Size : 19.3M
Bit Rate : 322k
Sample Encoding: MPEG audio (layer I, II or III)
Comments :
Title=Circularis et Perpetua
Artist=MONOCUBE & TROUM
Album=Contemplator Caeli (collab. with MONOCUBE)
Tracknumber=1
Year=2019
Genre=Drone



Register


Thanks:
Go to the top of the page
  Insert nick Quick quote
+Quote Post
 
Start new topic
Replies (1 - 3)
post Jul 10 2019, 18:06:35
Post #2

Русь Понад Усе!
**************
Group: Металариец
Posts: 4,195
Releases: 15
From: Украина
On Forums: 11 years 11 months
Thanks: 1634 time(s)
Ukraine


Ссылка не рабочая можно презалить? (IMG:style_emoticons/default/bye.gif)
Go to the top of the page
  Insert nick Quick quote
+Quote Post
post Jul 21 2019, 19:16:58
Post #3

####!111
**************
Group: Металариец
Posts: 3,715
Releases: 125
From: The Mountain Of DOOM
On Forums: 11 years 10 months
Thanks: 5234 time(s)
Russian Federation


Не, чувак из Monocube бдит, как бы его говнецо не украли, а ему чужое здесь можно качать (IMG:style_emoticons/default/smile1.gif)
Go to the top of the page
  Insert nick Quick quote
+Quote Post
post Aug 1 2019, 12:18:38
Post #4

...Only Death Is Real...
**************
Group: Металариец
Posts: 2,761
Releases: 15
On Forums: 9 years 4 weeks
Thanks: 1745 time(s)
Antarctica


ЦИТАТА(recber @ Jul 10 2019, 22:06:35) *
Ссылка не рабочая можно презалить? (IMG:style_emoticons/default/bye.gif)

+1
Go to the top of the page
  Insert nick Quick quote
+Quote Post

Reply to this topicStart new topic
2 User(s) are reading this topic (2 Guests and 0 Anonymous Users)
0 Members:

 



- Lo-Fi Version Support form
Copyrights and abuse reports form
Time is now: 20th August 2019 - 22:25:32