Welcome Guest ( Log In | Register )

> И неформату есть предел.

Рэп/хип-хоп/шансон/поп удаляются. Для них есть свои порталы.

> ZZ Top - Antenna (1994), Blues Rock (D7)
post Jul 8 2019, 15:57:52
Post #1

Правь статус, ####!111
**************
Group: Металариец
Posts: 42,400
Releases: 641
On Forums: 10 years 2 months
Thanks: 33248 time(s)
Russian Federation


(IMG:https://metalarea.org/images/audiocovers/2019_Jul/acov_tid324086_thumb.jpg)

*Artist: ZZ Top
*Album: Antenna
*Year: 1994
*Genre: Blues Rock
*Country: United States (IMG:https://metalarea.org/forum/style_images/flags/United%20States.png)
*Format: mp3@CBR320kbps
*Size: 125MB

Tracklist:
1. Pincushion
2. Breakaway
3. World Of Swirl
4. Fuzzbox Voodoo
5. Girl In A T-Shirt
6. Antenna Head
7. PCH
8. Cherry Red
9. Cover Your Rig
10. Lizard Life
11. Deal Goin' Down
12. Everything
******************************
Total playing time: 54:49

(IMG:https://metalarea.org/images/youtube.png)

Technical info
(IMG:https://metalarea.org/images/spectrogram/2019_Jul/e126b7d549e9e7d015711a25c6778898.png)
Input File: 03. World Of Swirl.mp3
Channels : 2
Sample Rate : 44100
Precision : 16-bit
Duration : 00:04:08.00 = 10936800 samples = 18600 CDDA sectors
File Size : 9.96M
Bit Rate : 321k
Sample Encoding: MPEG audio (layer I, II or III)
Comments :
Title=World Of Swirl
Artist=ZZ Top
Album=Antenna
Tracknumber=03/12
Year=1994
Genre=Hard Rock



Register


Thanks:
(2) Anger, Aresson,
Go to the top of the page
  Insert nick Quick quote
+Quote Post
 
Start new topic
Replies (1 - 1)
post Jul 8 2019, 21:12:33
Post #2

Правь статус, ####!111
**************
Group: Металариец
Posts: 42,400
Releases: 641
On Forums: 10 years 2 months
Thanks: 33248 time(s)
Russian Federation


Одна из самых крутых записей боровичков.

Прибавили в тяжести и жирноте, убрав лоск 80-х, но при этом хитовость прёт на все 100.

Половина песен отсюда - железобетонные хиты.
Go to the top of the page
  Insert nick Quick quote
+Quote Post

Reply to this topicStart new topic
2 User(s) are reading this topic (2 Guests and 0 Anonymous Users)
0 Members:

 



- Lo-Fi Version Support form
Copyrights and abuse reports form
Time is now: 22nd August 2019 - 15:43:57