Welcome Guest ( Log In | Register )

> И неформату есть предел.

Рэп/хип-хоп/шансон/поп удаляются. Для них есть свои порталы.

> ZZ Top - Afterburner (1985), Blues Rock (D7)
post Jul 8 2019, 16:00:20
Post #1

Правь статус, ####!111
**************
Group: Металариец
Posts: 42,304
Releases: 638
On Forums: 10 years 2 months
Thanks: 33156 time(s)
Russian Federation


(IMG:https://metalarea.org/images/audiocovers/2019_Jul/acov_tid324087_thumb.jpg)

*Artist: ZZ Top
*Album: Afterburner
*Year: 1985
*Genre: Blues Rock
*Country: United States (IMG:https://metalarea.org/forum/style_images/flags/United%20States.png)
*Format: mp3@CBR320kbps
*Size: 84MB

Tracklist:
1. Sleeping Bag
2. Stages
3. Woke Up With Wood
4. Rough Boy
5. Can't Stop Rockin'
6. Planet Of Women
7. I Got The Message
8. Velcro Fly
9. Dipping Low (In The Lap Of Luxury)
10. Delirious
******************************
Total playing time: 37:03

(IMG:https://metalarea.org/images/youtube.png)

Technical info
(IMG:https://metalarea.org/images/spectrogram/2019_Jul/a14a4501ea89f32ff81a89774aaf719f.png)
Input File: 01. Sleeping Bag.mp3
Channels : 2
Sample Rate : 44100
Precision : 16-bit
Duration : 00:04:03.00 = 10716300 samples = 18225 CDDA sectors
File Size : 9.74M
Bit Rate : 321k
Sample Encoding: MPEG audio (layer I, II or III)
Comments :
Title=Sleeping Bag
Artist=ZZ Top
Album=Afterburner
Tracknumber=01/10
Year=1985
Genre=Hard Rock



Register


Thanks:
Go to the top of the page
  Insert nick Quick quote
+Quote Post
 
Start new topic
Replies (1 - 2)
post Jul 8 2019, 21:10:55
Post #2

Правь статус, ####!111
**************
Group: Металариец
Posts: 42,304
Releases: 638
On Forums: 10 years 2 months
Thanks: 33156 time(s)
Russian Federation


Rough Boy - красивейшая баллада.

Planet Of Women и Velcro Fly - отличные песенки.

Обложка тоже крутанская, слегка имеет схожесть с Пристами.
Go to the top of the page
  Insert nick Quick quote
+Quote Post
post Jul 10 2019, 14:18:07
Post #3

**********
**************
Group: Металариец
Posts: 8,922
Releases: 96
On Forums: 6 years 11 months
Thanks: 7439 time(s)
Unknown


да практически все песни - хорошие

ну и Rough Boy вместе с клипом - атас
Go to the top of the page
  Insert nick Quick quote
+Quote Post

Reply to this topicStart new topic
1 User(s) are reading this topic (1 Guests and 0 Anonymous Users)
0 Members:

 



- Lo-Fi Version Support form
Copyrights and abuse reports form
Time is now: 19th August 2019 - 04:37:12