Welcome Guest ( Log In | Register )

> И неформату есть предел.

Рэп/хип-хоп/шансон/поп удаляются. Для них есть свои порталы.

> Stigmata - Фараоны [single] (2019), Metalcore (D)
post Jul 9 2019, 11:49:07
Post #1

Правь статус, ####!111
**************
Group: Металариец
Posts: 45,694
Releases: 704
On Forums: 10 years 9 months
Thanks: 37621 time(s)
Russian Federation


(IMG:http://metalarea.org/images/audiocovers/2019_Jul/acov_tid324117_thumb.jpg)

*Artist: Stigmata
*Album: Фараоны [single]
*Year: 2019
*Genre: Metalcore
*Country: Russian Federation (IMG:http://metalarea.org/forum/style_images/flags/Russian%20Federation.png)
*Format: mp3@CBR320kbps
*Size: 8MB

Tracklist:
1. Фараоны 03:18
******************************
Total playing time: 3:18

(IMG:http://metalarea.org/images/youtube.png)

Technical info
(IMG:http://metalarea.org/images/spectrogram/2019_Jul/41fa74e5c4d5d2bf458ecada950e0a4a.png)
Input File: 01 - Фараоны.mp3
Channels : 2
Sample Rate : 44100
Precision : 16-bit
Duration : 00:03:18.07 = 8734931 samples = 14855.3 CDDA sectors
File Size : 8.22M
Bit Rate : 332k
Sample Encoding: MPEG audio (layer I, II or III)
Comments :
Title=Фараоны
Artist=Stigmata
Album=Фараоны
Tracknumber=1
Year=2019
Genre=Rock
Discnumber=1



Register


Go to the top of the page
  Insert nick Quick quote
+Quote Post
 
Start new topic
Replies (1 - 7)
post Jul 10 2019, 09:05:53
Post #2

Правь статус, ####!111
**************
Group: Металариец
Posts: 45,694
Releases: 704
On Forums: 10 years 9 months
Thanks: 37621 time(s)
Russian Federation


Молодёжно.
Go to the top of the page
  Insert nick Quick quote
+Quote Post
post Jul 10 2019, 10:36:14
Post #3

Ледоруб
**************
Group: Металариец
Posts: 24,415
Releases: 0
From: Санкт-Петербург
On Forums: 10 years 6 months
Thanks: 8377 time(s)
Russian Federation


Зарубка.
Go to the top of the page
  Insert nick Quick quote
+Quote Post
post Jul 10 2019, 10:37:41
Post #4

Шесть Литров
******
Group: Металариец
Posts: 517
Releases: 4
From: Москва
On Forums: 11 years 2 months
Thanks: 737 time(s)
Russian Federation


Проблема российских групп в том, что вместо создания творчества, своей движухи и какой-то уникальной музыкальной атмосферы, как в тех же ненавистных США, артисты занимаются или тотальным подражанием (подражание 90м, пост-панку, раннему русскому року) или погоней за хайпом и сиюминутными модными течениями у молодежи, даже если этим артистам уже далеко за 30. Причем вся эта погоня за модой заканчивается неудачно, потому что "старперы" просто не могут уловить нужное время. Ждем теперь, когда какие нибудь Аматори, или кто там еще есть, запишут трек про тик ток, когда популярность того уже начнет спадать.


Go to the top of the page
  Insert nick Quick quote
+Quote Post
post Jul 10 2019, 10:38:14
Post #5

Ледоруб
**************
Group: Металариец
Posts: 24,415
Releases: 0
From: Санкт-Петербург
On Forums: 10 years 6 months
Thanks: 8377 time(s)
Russian Federation


Я подкатил Вакханалу лодку.
Go to the top of the page
  Insert nick Quick quote
+Quote Post
post Jul 10 2019, 12:33:32
Post #6

Котеги! Нравяцо котеги?
**************
Group: Металариец
Posts: 6,206
Releases: 0
From: Терра Инкогнита
On Forums: 9 years 10 months
Thanks: 2674 time(s)
Russian Federation


ЦИТАТА(Vakhanal @ 10th July 2019 - 12:37:41) *
про тик ток, когда популярность того уже начнет спадать.

по ходу она уже спала, не успев вырасти до той степени, чтобы я понял, о чём речь.

З.ы. В песне металлики "франтик" в припеве было про тик ток чегой-то


Thanks:
(1) Emm Human,
Go to the top of the page
  Insert nick Quick quote
+Quote Post
post Jul 14 2019, 22:09:19
Post #7

Шесть Литров
******
Group: Металариец
Posts: 611
Releases: 0
From: Кирово-Чепецк
On Forums: 4 years 11 months
Thanks: 109 time(s)
Russian Federation


Никогда не понимал фапа на них
Go to the top of the page
  Insert nick Quick quote
+Quote Post
post Jul 14 2019, 22:29:19
Post #8

Ледоруб
**************
Group: Металариец
Posts: 24,415
Releases: 0
From: Санкт-Петербург
On Forums: 10 years 6 months
Thanks: 8377 time(s)
Russian Federation


Ещё одна зарубка.
Go to the top of the page
  Insert nick Quick quote
+Quote Post

Reply to this topicStart new topic
2 User(s) are reading this topic (2 Guests and 0 Anonymous Users)
0 Members:

 



- Lo-Fi Version Support form
Copyrights and abuse reports form
Time is now: 31st March 2020 - 17:16:39