Welcome Guest ( Log In | Register )

> И неформату есть предел.

Рэп/хип-хоп/шансон/поп удаляются. Для них есть свои порталы.

> Stigmata - Калейдоскоп (2019), Acoustic/Rock (D)
post Jul 9 2019, 11:55:56
Post #1

Правь статус, ####!111
**************
Group: Металариец
Posts: 42,355
Releases: 641
On Forums: 10 years 2 months
Thanks: 33192 time(s)
Russian Federation


(IMG:http://metalarea.org/images/audiocovers/2019_Jul/acov_tid324119_thumb.jpg)

*Artist: Stigmata
*Album: Калейдоскоп
*Year: 2019
*Genre: Acoustic/Rock
*Country: Russian Federation (IMG:http://metalarea.org/forum/style_images/flags/Russian%20Federation.png)
*Format: mp3@CBR320kbps
*Size: 73MB

Tracklist:
1. Истории
2.Цунами
3. Сожжённый дотла
4. До девятой ступени
5. Сентябрь
6. На повтор
7. Как ты
8. Оставь надежду
******************************
Total playing time: 31:00

(IMG:http://metalarea.org/images/youtube.png)

Technical info
(IMG:http://metalarea.org/images/spectrogram/2019_Jul/10490c129aa0ccc64e15990309c259e7.png)
Input File: 01 - Истории.mp3
Channels : 2
Sample Rate : 44100
Precision : 16-bit
Duration : 00:03:25.53 = 9063961 samples = 15414.9 CDDA sectors
File Size : 8.22M
Bit Rate : 320k
Sample Encoding: MPEG audio (layer I, II or III)
Comments :
Title=Èñòîðèè
Artist=Stigmata
Album=Êàëåéäîñêîï
Tracknumber=1
Year=2019
Genre=17



Register


Go to the top of the page
  Insert nick Quick quote
+Quote Post
 
Start new topic
Replies (1 - 4)
post Jul 10 2019, 09:08:52
Post #2

Правь статус, ####!111
**************
Group: Металариец
Posts: 42,355
Releases: 641
On Forums: 10 years 2 months
Thanks: 33192 time(s)
Russian Federation


Максу может и понравится...
Go to the top of the page
  Insert nick Quick quote
+Quote Post
post Jul 10 2019, 09:18:50
Post #3

Три Литра
***
Group: Завсегдатай
Posts: 288
Releases: 4
On Forums: 12 years 4 months
Thanks: 231 time(s)
Russian Federation


что за кодировка у тебя? капец какой-то

непривычное звучание, но что-то в этом есть
Go to the top of the page
  Insert nick Quick quote
+Quote Post
post Jul 10 2019, 09:19:34
Post #4

Правь статус, ####!111
**************
Group: Металариец
Posts: 42,355
Releases: 641
On Forums: 10 years 2 months
Thanks: 33192 time(s)
Russian Federation


Нормальный рип, не кипишуй.
Go to the top of the page
  Insert nick Quick quote
+Quote Post
post Jul 10 2019, 10:36:47
Post #5
BAN
Banned till
Aug 28 2019, 15:50:53



ЦИТАТА(vosmidesijatye @ 10th July 2019 - 11:08:52) *
Максу может и понравится...

Акустика-то?
Go to the top of the page
  Insert nick Quick quote
+Quote Post

Reply to this topicStart new topic
2 User(s) are reading this topic (2 Guests and 0 Anonymous Users)
0 Members:

 



- Lo-Fi Version Support form
Copyrights and abuse reports form
Time is now: 20th August 2019 - 22:01:12