Welcome Guest ( Log In | Register )

> Zygotical - Zygotical [demo] (2018), Black Metal
post Jul 9 2019, 17:47:35
Post #1

the faceless one
Group Icon
Group: S-moderation team
Posts: 9,569
Releases: 1973
On Forums: 14 years 3 months
Thanks: 121850 time(s)
Russian Federation


(IMG:http://metalarea.org/images/audiocovers/2019_Jul/acov_tid324134_thumb.jpg)

*Artist: Zygotical
*Album: Zygotical [demo]
*Year: 2018
*Genre: Black Metal
*Country: United States (IMG:http://metalarea.org/forum/style_images/flags/United%20States.png)
*Format: mp3@CBR320kbps
*Size: 32MB

Tracklist:
1. Introcide 01:04
2. Inverted Ascension 02:24
3. Phallic Conception 01:34
4. Black Bile Sermon 03:31
5. Goatserpent 02:19
6. Deathtrance 02:21
7. Outrodeath 00:53
******************************
Total playing time: 14:08


(IMG:http://metalarea.org/images/youtube.png)

Technical info
(IMG:http://metalarea.org/images/spectrogram/2019_Jul/dbd1c5fb27f6e2990ae73f236f9a3245.png)
Input File: Zygotical - 04 - Black Bile Sermon.mp3
Channels : 2
Sample Rate : 44100
Precision : 16-bit
Duration : 00:03:30.92 = 9301748 samples = 15819.3 CDDA sectors
File Size : 8.44M
Bit Rate : 320k
Sample Encoding: MPEG audio (layer I, II or III)
Comments :
Title=Black Bile Sermon
Artist=Zygotical
Album=Zygotical
Tracknumber=04
Year=2018
Genre=Black Metal



Register


Go to the top of the page
  Insert nick Quick quote
+Quote Post
 
Start new topic
Replies (1 - 4)
post Jul 9 2019, 19:16:14
Post #2

Восемь Литров
********
Group: Металариец
Posts: 858
Releases: 164
On Forums: 12 years 2 months
Thanks: 2161 time(s)
Albania


VERY GOOD DEMO
Go to the top of the page
  Insert nick Quick quote
+Quote Post
post Jul 11 2019, 17:08:38
Post #3

the faceless one
Group Icon
Group: S-moderation team
Posts: 9,569
Releases: 1973
On Forums: 14 years 3 months
Thanks: 121850 time(s)
Russian Federation


Выложил цифровую мастер-запись данного EP.
Ссылки обновил.


Go to the top of the page
  Insert nick Quick quote
+Quote Post
post Nov 11 2021, 21:43:22
Post #4

Group: Подсевший
Posts: 12
Releases: 0
On Forums: 1 year 8 months
Thanks: 0 time(s)
Unknown


Do you have the catacomb worship demo as well? I'm looking for it (IMG:style_emoticons/default/true_black.gif) (IMG:style_emoticons/default/dwarf-1.gif) (IMG:style_emoticons/default/metaler.gif)
Go to the top of the page
  Insert nick Quick quote
+Quote Post
post Nov 12 2021, 14:26:53
Post #5

Правь статус, ####!111
Group Icon
Group: S-moderation team
Posts: 22,058
Releases: 1443
On Forums: 11 years 9 months
Thanks: 114600 time(s)
Unknown


QUOTE(Rotten_ @ Nov 11 2021, 21:43:22) *
Do you have the catacomb worship demo as well? I'm looking for it (IMG:style_emoticons/default/true_black.gif) (IMG:style_emoticons/default/dwarf-1.gif) (IMG:style_emoticons/default/metaler.gif)
Register



Go to the top of the page
  Insert nick Quick quote
+Quote Post

Reply to this topicStart new topic
2 User(s) are reading this topic (2 Guests and 0 Anonymous Users)
0 Members:

 



- Lo-Fi Version Support form
Copyrights and abuse reports form
Time is now: 3rd December 2022 - 16:15:23