Welcome Guest ( Log In | Register )

> И неформату есть предел.

Рэп/хип-хоп/шансон/поп удаляются. Для них есть свои порталы.

 
Reply to this topicStart new topic
> Wear Your Wounds - Dunedevil (2017), Ambient/Experimental
post Jul 10 2019, 09:23:42
Post #1

Три Литра
***
Group: Завсегдатай
Posts: 298
Releases: 114
From: Helvetia
On Forums: 6 years 6 months
Thanks: 1904 time(s)
Switzerland


(IMG:https://metalarea.org/images/audiocovers/2019_Jul/acov_tid324145_thumb.png)

*Artist: Wear Your Wounds
*Album: Dunedevil
*Year: 2017
*Genre: Ambient/Experimental
*Country: United States (IMG:https://metalarea.org/forum/style_images/flags/United%20States.png)
*Format: mp3@CBR320kbps
*Size: 90MB

Tracklist:
1. Invitation
2. Great White
3. Insects
4. Outsiders
5. Relic
6. Steps
7. Be Still My Heart
******************************
Total playing time: 29:28

(IMG:https://metalarea.org/images/youtube.png)



Extended info
For one week J. Bannon resided in the C-Scape Dune Shack (formerly known as the Cohen Shack) within the Peaked Hill Bars National Register Historical District in Provincetown, Massachusetts. This primitive environment inspired an outpouring of abstract mixed media work, photography, and music. The visual material from the experience is presented as “Dunedevil”by J. Bannon. Available as a nearly 300 page “smyth sewn” art book and Kindle edition, with a forward by acclaimed artist Thomas Hooper. Each day, the skeleton of a song was recorded using a portable recording device powered by a Goal Zero solar power setup. The sounds were captured through an Apogee Duet using a Critter & Guitari mini piano, Martin Jr. guitar, assorted effects pedals, and a Shure SM7B microphone. Mike Mckenzie graciously played additional guitar on “Be Still My Heart” at a later date. All songs were then refined and mixed during the winter of 2016, and mastered by Brad Boatright at Audiosiege. These recordings are presented as “Dunedevil”, an experimental album from Wear Your Wounds.


Technical info
(IMG:https://metalarea.org/images/spectrogram/2019_Jul/1a69017496f04f1cec161c22e32e1aa4.png)
Input File: 05 - Relic.mp3
Channels : 2
Sample Rate : 44100
Precision : 16-bit
Duration : 00:05:07.32 = 13552900 samples = 23049.1 CDDA sectors
File Size : 15.4M
Bit Rate : 400k
Sample Encoding: MPEG audio (layer I, II or III)
Comments :
Title=Relic
Artist=Wear Your Wounds
Album=Dunedevil
Tracknumber=5/7
Year=2017
Genre=Post-Rock / Experimental



Register


Thanks:
Go to the top of the page
  Insert nick Quick quote
+Quote Post

Reply to this topicStart new topic
1 User(s) are reading this topic (1 Guests and 0 Anonymous Users)
0 Members:

 



- Lo-Fi Version Support form
Copyrights and abuse reports form
Time is now: 19th August 2019 - 04:26:19