Welcome Guest ( Log In | Register )

> И неформату есть предел.

Рэп/хип-хоп/шансон/поп удаляются. Для них есть свои порталы.

> ZZ Top - El Loco (1981), Blues Rock (D9)
post Jul 11 2019, 11:29:45
Post #1

Правь статус, ####!111
**************
Group: Металариец
Posts: 42,462
Releases: 644
On Forums: 10 years 2 months
Thanks: 33341 time(s)
Russian Federation


(IMG:http://metalarea.org/images/audiocovers/2019_Jul/acov_tid324194_thumb.jpg)

*Artist: ZZ Top
*Album: El Loco
*Year: 1981
*Genre: Blues Rock
*Country: United States (IMG:http://metalarea.org/forum/style_images/flags/United%20States.png)
*Format: mp3@CBR320kbps
*Size: 85MB

Tracklist:
1. Tube Snake Boogie
2. I Wanna Drive You Home
3. Ten Foot Pole
4. Leila
5. Don't Tease Me
6. It's So Hard
7. Pearl Necklace
8. Groovy Little Hippie Pad
9. Heaven, Hell Or Houston
10. Party On The Patio
******************************
Total playing time: 37:05

(IMG:http://metalarea.org/images/youtube.png)

Technical info
(IMG:http://metalarea.org/images/spectrogram/2019_Jul/9c02fe68c2c7befed100af93a1542c37.png)
Input File: 01. Tube Snake Boogie.mp3
Channels : 2
Sample Rate : 44100
Precision : 16-bit
Duration : 00:03:04.00 = 8114400 samples = 13800 CDDA sectors
File Size : 7.41M
Bit Rate : 322k
Sample Encoding: MPEG audio (layer I, II or III)
Comments :
Title=Tube Snake Boogie
Artist=ZZ Top
Album=El Loco
Tracknumber=01/10
Year=1981
Genre=Hard Rock



Register
Go to the top of the page
  Insert nick Quick quote
+Quote Post
 
Start new topic
Replies (1 - 4)
post Jul 11 2019, 15:30:48
Post #2

Правь статус, ####!111
**************
Group: Металариец
Posts: 42,462
Releases: 644
On Forums: 10 years 2 months
Thanks: 33341 time(s)
Russian Federation


Ангар, как тебе релизец этот?
Go to the top of the page
  Insert nick Quick quote
+Quote Post
post Jul 11 2019, 15:44:51
Post #3

**********
**************
Group: Металариец
Posts: 8,945
Releases: 96
On Forums: 6 years 11 months
Thanks: 7453 time(s)
Unknown


я их внимательно слушал со следующего, но качал и этот, вроде бы. не помню его. может, не вкатил совсем

а на дисках дома никогда их не было, как ни странно. только клипы их смотрел в доинтернетные времена
Go to the top of the page
  Insert nick Quick quote
+Quote Post
post Jul 11 2019, 15:50:12
Post #4

Правь статус, ####!111
**************
Group: Металариец
Posts: 42,462
Releases: 644
On Forums: 10 years 2 months
Thanks: 33341 time(s)
Russian Federation


Начиная с 1990-х вокал стал заметно грубее и жесче.

Хрен знает, как к этому относиться.

Мне и мягкий аамериканизированно-"попсовый" 80нический прёт.
Go to the top of the page
  Insert nick Quick quote
+Quote Post
post Jul 16 2019, 14:38:39
Post #5

Правь статус, ####!111
**************
Group: Металариец
Posts: 42,462
Releases: 644
On Forums: 10 years 2 months
Thanks: 33341 time(s)
Russian Federation


ЦИТАТА(Anger @ Jul 11 2019, 18:44:51) *
не вкатил совсем


Да, к сожалению.
Go to the top of the page
  Insert nick Quick quote
+Quote Post

Reply to this topicStart new topic
1 User(s) are reading this topic (1 Guests and 0 Anonymous Users)
0 Members:

 



- Lo-Fi Version Support form
Copyrights and abuse reports form
Time is now: 24th August 2019 - 15:06:00