Welcome Guest ( Log In | Register )

> И неформату есть предел.

Рэп/хип-хоп/шансон/поп удаляются. Для них есть свои порталы.

 
Reply to this topicStart new topic
> Chemtrail - Collider (2019), Post-Rock/Instrumental
post Jul 12 2019, 10:09:16
Post #1

Три Литра
***
Group: Завсегдатай
Posts: 299
Releases: 4
On Forums: 12 years 8 months
Thanks: 243 time(s)
Russian Federation


(IMG:http://metalarea.org/images/audiocovers/2019_Jul/acov_tid324292_thumb.jpg)

*Artist: Chemtrail
*Album: Collider
*Year: 2019
*Genre: Post-Rock/Instrumental
*Country: United States (IMG:http://metalarea.org/forum/style_images/flags/United%20States.png)
*Format: mp3@CBR320kbps
*Size: 103MB

Tracklist:
01 Void Crawler
02 Young Warrior
03 Frozen Dream
04 Safe Passage
05 Tiger Cage
06 Collider
07 Parameters
08 Thrasher
******************************
Total playing time: 45:53

(IMG:http://metalarea.org/images/youtube.png)

Extended info
Line Up:
Mike Burke - Guitar / Keys
Dan Ridenour - Guitar
Chris Camano - Guitar / Keys
Cory George - Bass
Randy Kovac - Drums
Bobby Bates - Keys / Synth


Technical info
(IMG:http://metalarea.org/images/spectrogram/2019_Jul/c749def9cf4de91fba988f0ea86bb866.png)
Input File: 02 Young Warrior.mp3
Channels : 2
Sample Rate : 44100
Precision : 16-bit
Duration : 00:08:04.08 = 21347708 samples = 36305.6 CDDA sectors
File Size : 19.4M
Bit Rate : 320k
Sample Encoding: MPEG audio (layer I, II or III)
Comments :
Title=Young Warrior
Artist=Chemtrail
Album=Collider
Tracknumber=02/8
Year=2019
Genre=Post Rock



Register


Go to the top of the page
  Insert nick Quick quote
+Quote Post

Reply to this topicStart new topic
1 User(s) are reading this topic (1 Guests and 0 Anonymous Users)
0 Members:

 



- Lo-Fi Version Support form
Copyrights and abuse reports form
Time is now: 16th December 2019 - 09:05:04