Welcome Guest ( Log In | Register )

> Releases Upload / Добавление релизов

Добавить релиз тут / Click here to add release
Рекомендованные обменники / Recommended file shares

> Aspic - Stars Collide (2019), Progressive Metal
post Jul 12 2019, 14:13:51
Post #1

Serial Uploader
Group Icon
Group: V.I.P
Posts: 35,608
Releases: 33817
From: Lithuania
On Forums: 11 years 1 month
Thanks: 389443 time(s)
Lithuania


(IMG:https://metalarea.org/images/audiocovers/2019_Jul/acov_tid324306_thumb.jpg)

*Artist: Aspic
*Album: Stars Collide
*Year: 2019
*Genre: Progressive Metal
*Country: El Salvador (IMG:https://metalarea.org/forum/style_images/flags/El%20Salvador.png)
*Format: mp3@CBR320kbps
*Size: 108MB

Tracklist:
01. Stars Collide 08:40
02. Parallax 04:29
03. The Event Horizon 05:26
04. Under Melting Skies 06:57
05. Mirrors 05:59
06. Introspective 03:39
07. What We Are 07:54
08. Sunrise (feat. Julio Rodas) 02:33
******************************
Total playing time: 45:37




Technical info
(IMG:https://metalarea.org/images/spectrogram/2019_Jul/e90b4a7a5a5ef2662fa6c4a9fd7e2d21.png)
Input File: 02. Parallax.mp3
Channels : 2
Sample Rate : 44100
Precision : 16-bit
Duration : 00:04:29.60 = 11889404 samples = 20220.1 CDDA sectors
File Size : 11.3M
Bit Rate : 335k
Sample Encoding: MPEG audio (layer I, II or III)
Comments :
Title=Parallax
Artist=Aspic
Album=Stars Collide
Tracknumber=2/8
Year=2019



Register


Go to the top of the page
  Insert nick Quick quote
+Quote Post
 
Start new topic
Replies (1 - 2)
post Jul 12 2019, 17:42:18
Post #2

hearer & reader
**************
Group: Металариец
Posts: 7,897
Releases: 103
From: Moscow
On Forums: 11 years 10 months
Thanks: 7405 time(s)
Russian Federation


Счастливые сальвадорские дети! Аж на душе приятно.
Слушать не надо.


Go to the top of the page
  Insert nick Quick quote
+Quote Post
post Jul 12 2019, 17:52:01
Post #3

21st Century Schizoid Man
**************
Group: Металариец
Posts: 5,874
Releases: 71
From: Moscow
On Forums: 11 years 2 months
Thanks: 4519 time(s)
Russian Federation


Мусор, как 95% FF-progressive metal.
Go to the top of the page
  Insert nick Quick quote
+Quote Post

Reply to this topicStart new topic
1 User(s) are reading this topic (1 Guests and 0 Anonymous Users)
0 Members:

 



- Lo-Fi Version Support form
Copyrights and abuse reports form
Time is now: 18th July 2019 - 01:33:04