Welcome Guest ( Log In | Register )

 
Reply to this topicStart new topic
> Deathead - Blessed In Blasphemy (2014), Thrash Metal
post Jul 12 2019, 15:50:31
Post #1

Правь статус, ####!111
**************
Group: Металариец
Posts: 17,759
Releases: 12042
From: Г.Харьков
On Forums: 7 years 2 months
Thanks: 202149 time(s)
Unknown


(IMG:https://metalarea.org/images/audiocovers/2019_Jul/acov_tid324312_thumb.jpg)

*Artist: Deathead
*Album: Blessed In Blasphemy
*Year: 2014
*Genre: Thrash Metal
*Country: United States (IMG:https://metalarea.org/forum/style_images/flags/United%20States.png)
*Format: mp3@CBR320kbps
*Size: 91MB

Tracklist:
1. Funeral Hymn 00:34
2. In Fear Reborn 04:51
3. Blessed in Blasphemy 02:49
4. World of Hate 05:09
5. Thing in the Dark 04:29
6. Brutality Complete 05:47
7. Controlled by Chaos 04:14
8. Awakening 01:57
9. Hurt...Bleed...Die... 02:51
10. Pleasure in Pain 04:52
******************************
Total playing time: 37:33




Extended info
Chris Jester Guitars, Vocals (2001-present)
Cody Carson Drums (2012-present)
Derek Perry Bass (2015-present)


Technical info
(IMG:https://metalarea.org/images/spectrogram/2019_Jul/4722d64a85e04db887fcca70542ec5f8.png)
Input File: 04. World of Hate.mp3
Channels : 2
Sample Rate : 44100
Precision : 16-bit
Duration : 00:05:09.86 = 13664738 samples = 23239.4 CDDA sectors
File Size : 13.0M
Bit Rate : 336k
Sample Encoding: MPEG audio (layer I, II or III)
Comments :
Title=World of Hate
Artist=Deathead
Album=Blessed in Blasphemy
Tracknumber=4/10
Year=2019



Register


Go to the top of the page
  Insert nick Quick quote
+Quote Post

Reply to this topicStart new topic
1 User(s) are reading this topic (1 Guests and 0 Anonymous Users)
0 Members:

 



- Lo-Fi Version Support form
Copyrights and abuse reports form
Time is now: 18th July 2019 - 01:43:09