Welcome Guest ( Log In | Register )

> Releases Upload / Добавление релизов

Добавить релиз тут / Click here to add release
Рекомендованные обменники / Recommended file shares

 
Reply to this topicStart new topic
> Svadilfare - Fortapte Roetter (2019), Atmospheric Black Metal
post Jul 12 2019, 17:08:09
Post #1

Правь статус, ####!111
**************
Group: Металариец
Posts: 17,759
Releases: 12042
From: Г.Харьков
On Forums: 7 years 2 months
Thanks: 202151 time(s)
Unknown


(IMG:https://metalarea.org/images/audiocovers/2019_Jul/acov_tid324316_thumb.jpg)

*Artist: Svadilfare
*Album: Fortapte Roetter
*Year: 2019
*Genre: Atmospheric Black Metal
*Country: Norway (IMG:https://metalarea.org/forum/style_images/flags/Norway.png)
*Format: mp3@CBR320kbps
*Size: 100MB

Tracklist:
1. Tenn flammen paa ny 07:36
2. Breidablik 05:06
3. Brutalt fortalt 04:09
4. Hordalands skimmer 05:34
5. Vemodig farvel 06:11
6. Fortapte roetter 07:02
7. Sjoelvmord 07:46
******************************
Total playing time: 43:24




Extended info
Ildsint Svartmunin All instruments, Vocals (2005-present)
See also: Blodstaur, Gandreid, Stygg, Necromegalomania, Raseri


Technical info
(IMG:https://metalarea.org/images/spectrogram/2019_Jul/437aefa1a870dc3cf8a18b0b6008ca50.png)
Input File: 3 - Brutalt Fortalt.mp3
Channels : 2
Sample Rate : 44100
Precision : 16-bit
Duration : 00:04:09.93 = 11021781 samples = 18744.5 CDDA sectors
File Size : 10.1M
Bit Rate : 323k
Sample Encoding: MPEG audio (layer I, II or III)
Comments :
Title=Brutalt Fortalt
Artist=Svadilfare
Album=Fortapte Roetter
Tracknumber=3
Year=2019
Genre=Metal
Discnumber=1



Register


Go to the top of the page
  Insert nick Quick quote
+Quote Post

Reply to this topicStart new topic
1 User(s) are reading this topic (1 Guests and 0 Anonymous Users)
0 Members:

 



- Lo-Fi Version Support form
Copyrights and abuse reports form
Time is now: 18th July 2019 - 02:14:37