Welcome Guest ( Log In | Register )

> И неформату есть предел.

Рэп/хип-хоп/шансон/поп удаляются. Для них есть свои порталы.

> Maniac - Liles - Czral - Det Skjedde Noe Når Du Var I Belgia (2009), Noise/Experimental Electronica/Experimental Rock
post Jul 12 2019, 17:16:05
Post #1

Четыре Литра
****
Group: Металариец
Posts: 354
Releases: 0
On Forums: 6 months 4 days
Thanks: 224 time(s)
Russian Federation


(IMG:https://metalarea.org/images/audiocovers/nocover.gif)

*Artist: Maniac - Liles - Czral
*Album: Det Skjedde Noe Når Du Var I Belgia
*Year: 2009
*Genre: Noise/Experimental Electronica/Experimental Rock
*Country: International (IMG:https://metalarea.org/forum/style_images/flags/International.png)
*Format: mp3@VBR289kbps
*Size: 98MB

Tracklist:
1 Umåtelige ekvinoktiale krav 0:42
2 Lamentuoso 5:13
3 Det skjedde noe 1:46
4 Piker, våpen og gitarer (Generalen kommer som en reddende engel) 3:28
5 Ekvinoktial flue 5:48
6 Dissonanser i prosessen 1:36
7 Menneskelige relasjoner satt i relasjon til meg 4:20
8 Trygt hjemme mens jeg drømmer baklengs 3:05
9 Salme 3:03
10 Terrence Macandrews' klagesang 2:25
11 En dråpe av meg 5:40
12 Jeg hørte aldri på fremtiden og jeg hørte aldri stemmer 2:50
13 Scenens svøpe 2:32
14 Noe skjedde når du var i Belgia 4:03
******************************
Total playing time: 46:31



Extended info
Maniac - Mayhem, Skitliv.

Lilis - Andrew Liles, Nurse With Wound, Current 93.

Czral (Carl-Michael Eide) - Aura Noir, Ved Buens Ende.


Technical info
(IMG:https://metalarea.org/images/spectrogram/2019_Jul/0b8ddd4fbdb96bd2ae37ed0a4943713a.png)
Input File: 11. En Dråpe Av Meg.mp3
Channels : 2
Sample Rate : 44100
Precision : 16-bit
Duration : 00:05:03.69 = 13392861 samples = 22777 CDDA sectors
File Size : 12.2M
Bit Rate : 320k
Sample Encoding: MPEG audio (layer I, II or III)
Comments :
Title=En Dråpe Av Meg
Artist=Maniac - Liles - Czral
Album=Det Skjedde Noe Når Du Var I Belgia
Tracknumber=11/14
Year=2009
Genre=Dark Ambient



Register


Go to the top of the page
  Insert nick Quick quote
+Quote Post
 
Start new topic
Replies (1 - 1)
post Jul 22 2019, 18:49:55
Post #2

Group: Подсевший
Posts: 28
Releases: 0
From: Бийск
On Forums: 1 year 11 months
Thanks: 6 time(s)
Russian Federation


"Цыганята и я с Ильича"... кабарешная версия. (IMG:style_emoticons/default/5.gif)
Go to the top of the page
  Insert nick Quick quote
+Quote Post

Reply to this topicStart new topic
1 User(s) are reading this topic (1 Guests and 0 Anonymous Users)
0 Members:

 



- Lo-Fi Version Support form
Copyrights and abuse reports form
Time is now: 12th December 2019 - 20:58:35