Welcome Guest ( Log In | Register )

> 虎落ブエ - Languid (2019), Progressive/Melodic Death Metal
post Jul 12 2019, 17:46:44
Post #1

Правь статус, ####!111
**************
Group: Металариец
Posts: 19,571
Releases: 13248
From: Г.Харьков
On Forums: 7 years 6 months
Thanks: 228487 time(s)
Unknown


(IMG:https://metalarea.org/images/audiocovers/2019_Jul/acov_tid324318_thumb.jpg)

*Artist: 虎落ブエ
*Album: Languid
*Year: 2019
*Genre: Progressive/Melodic Death Metal
*Country: Japan (IMG:https://metalarea.org/forum/style_images/flags/Japan.png)
*Format: mp3@CBR320kbps
*Size: 115MB

Tracklist:
01. Swim
02. Rain Sounds Like You
03. Lordless Mimetown
04. Enter the Raven
05. Tremendous Is Your Middle Name
06. Straitjacket
07. Great Chaos Fire Orb
08. The Way of the Hollow
09. Fading
10. Partners in Time
11. Where You Belonged
******************************
Total playing time: 50:01

Preview 1
(IMG:https://metalarea.org/images/youtube.png)

Extended info


Technical info
(IMG:https://metalarea.org/images/spectrogram/2019_Jul/59a4fc838d2b4bb0f37358f355e2abab.png)
Input File: 4 - Enter the Raven.mp3
Channels : 2
Sample Rate : 44100
Precision : 16-bit
Duration : 00:04:09.93 = 11021781 samples = 18744.5 CDDA sectors
File Size : 10.0M
Bit Rate : 321k
Sample Encoding: MPEG audio (layer I, II or III)
Comments :
Title=Enter the Raven
Artist=虎落ブエ
Album=Languid
Tracknumber=4
Year=2019
Genre=Metal
Discnumber=1



Register


Go to the top of the page
  Insert nick Quick quote
+Quote Post
 
Start new topic
Replies (1 - 7)
post Jul 13 2019, 07:30:08
Post #2

hearer & reader
**************
Group: Металариец
Posts: 8,204
Releases: 110
From: Moscow
On Forums: 12 years 2 months
Thanks: 7722 time(s)
Russian Federation


Послушал на Амазоне - хорошо жарят япошки. Надо знакомиться.
Яндекс перевёл название банды - Tiger Boo (IMG:style_emoticons/default/15.gif)
Go to the top of the page
  Insert nick Quick quote
+Quote Post
post Jul 13 2019, 13:45:22
Post #3

Group: Подсевший
Posts: 38
Releases: 0
From: Belarus
On Forums: 9 years 4 months
Thanks: 13 time(s)
Belarus


Вялики дзякуй,Самаритянин!! Добры гурт!


Thanks:
Go to the top of the page
  Insert nick Quick quote
+Quote Post
post Jul 13 2019, 14:28:13
Post #4

Group: Подсевший
Posts: 30
Releases: 0
From: nurman
On Forums: 10 years 4 days
Thanks: 3 time(s)
Russian Federation


включил на ютубе премьеру с 6 трэка, мдм'а нету тут. модерн
Go to the top of the page
  Insert nick Quick quote
+Quote Post
post Jul 13 2019, 16:05:26
Post #5

MDM-Thrash Metal
**************
Group: Металариец
Posts: 9,080
Releases: 743
From: Одесса
On Forums: 12 years 3 months
Thanks: 19844 time(s)
Ukraine


После новых релизов от Blood Staind Child, Gyze и некоторых других команд из Страны Восходящего Солнца - ощутил резкое отторжение от прослушивания коллективов из данной страны. Настолько все как то безидейно-примитивно одинаково звучит практически у всех команд, да еще и эти слащавые дурацкие гитарные соло-поливалочки взятые за основу...просто бесят. И под этим всем еще и позиционируются как Мелодез... (IMG:style_emoticons/default/6.gif)


Go to the top of the page
  Insert nick Quick quote
+Quote Post
post Jul 14 2019, 17:16:43
Post #6

ухо-горло-нос
********
Group: Металариец
Posts: 806
Releases: 0
From: Севастополь
On Forums: 9 years 2 months
Thanks: 373 time(s)
Russian Federation


Вот что есть мелодез:

А то что играют эти японцы не тянет на дэз вообще, какая то невнятная истерика


Thanks:
(1) Andrew,
Go to the top of the page
  Insert nick Quick quote
+Quote Post
post Jul 18 2019, 17:52:45
Post #7

hearer & reader
**************
Group: Металариец
Posts: 8,204
Releases: 110
From: Moscow
On Forums: 12 years 2 months
Thanks: 7722 time(s)
Russian Federation


Слушая, обнаружил, что модернятины япошки нажарили. Увы...
Go to the top of the page
  Insert nick Quick quote
+Quote Post
post Jul 27 2019, 15:14:25
Post #8

Два Литра
**
Group: Завсегдатай
Posts: 121
Releases: 2
On Forums: 9 years 4 months
Thanks: 137 time(s)
Russian Federation


FLAC: https://yadi.sk/d/gw8ZQkYWt3v9mA
Go to the top of the page
  Insert nick Quick quote
+Quote Post

Reply to this topicStart new topic
1 User(s) are reading this topic (1 Guests and 0 Anonymous Users)
0 Members:

 



- Lo-Fi Version Support form
Copyrights and abuse reports form
Time is now: 21st November 2019 - 21:45:44