Welcome Guest ( Log In | Register )

> Releases Upload / Добавление релизов

Добавить релиз тут / Click here to add release
Рекомендованные обменники / Recommended file shares

> 虎落ブエ - Languid (2019), Progressive/Melodic Death Metal
post Jul 12 2019, 17:46:44
Post #1

Правь статус, ####!111
**************
Group: Металариец
Posts: 17,759
Releases: 12042
From: Г.Харьков
On Forums: 7 years 2 months
Thanks: 202149 time(s)
Unknown


(IMG:https://metalarea.org/images/audiocovers/2019_Jul/acov_tid324318_thumb.jpg)

*Artist: 虎落ブエ
*Album: Languid
*Year: 2019
*Genre: Progressive/Melodic Death Metal
*Country: Japan (IMG:https://metalarea.org/forum/style_images/flags/Japan.png)
*Format: mp3@CBR320kbps
*Size: 115MB

Tracklist:
01. Swim
02. Rain Sounds Like You
03. Lordless Mimetown
04. Enter the Raven
05. Tremendous Is Your Middle Name
06. Straitjacket
07. Great Chaos Fire Orb
08. The Way of the Hollow
09. Fading
10. Partners in Time
11. Where You Belonged
******************************
Total playing time: 50:01

Preview 1
(IMG:https://metalarea.org/images/youtube.png)

Extended info


Technical info
(IMG:https://metalarea.org/images/spectrogram/2019_Jul/59a4fc838d2b4bb0f37358f355e2abab.png)
Input File: 4 - Enter the Raven.mp3
Channels : 2
Sample Rate : 44100
Precision : 16-bit
Duration : 00:04:09.93 = 11021781 samples = 18744.5 CDDA sectors
File Size : 10.0M
Bit Rate : 321k
Sample Encoding: MPEG audio (layer I, II or III)
Comments :
Title=Enter the Raven
Artist=虎落ブエ
Album=Languid
Tracknumber=4
Year=2019
Genre=Metal
Discnumber=1



Register


Go to the top of the page
  Insert nick Quick quote
+Quote Post
 
Start new topic
Replies (1 - 5)
post Jul 13 2019, 07:30:08
Post #2

hearer & reader
**************
Group: Металариец
Posts: 7,897
Releases: 103
From: Moscow
On Forums: 11 years 10 months
Thanks: 7405 time(s)
Russian Federation


Послушал на Амазоне - хорошо жарят япошки. Надо знакомиться.
Яндекс перевёл название банды - Tiger Boo (IMG:style_emoticons/default/15.gif)
Go to the top of the page
  Insert nick Quick quote
+Quote Post
post Jul 13 2019, 13:45:22
Post #3

Group: Подсевший
Posts: 35
Releases: 0
From: Belarus
On Forums: 9 years 1 week
Thanks: 8 time(s)
Belarus


Вялики дзякуй,Самаритянин!! Добры гурт!


Thanks:
Go to the top of the page
  Insert nick Quick quote
+Quote Post
post Jul 13 2019, 14:28:13
Post #4

Group: Подсевший
Posts: 29
Releases: 0
From: nurman
On Forums: 9 years 7 months
Thanks: 2 time(s)
Russian Federation


включил на ютубе премьеру с 6 трэка, мдм'а нету тут. модерн
Go to the top of the page
  Insert nick Quick quote
+Quote Post
post Jul 13 2019, 16:05:26
Post #5

MDM-Thrash Metal
**************
Group: Металариец
Posts: 8,332
Releases: 494
From: Одесса
On Forums: 11 years 11 months
Thanks: 15769 time(s)
Ukraine


После новых релизов от Blood Staind Child, Gyze и некоторых других команд из Страны Восходящего Солнца - ощутил резкое отторжение от прослушивания коллективов из данной страны. Настолько все как то безидейно-примитивно одинаково звучит практически у всех команд, да еще и эти слащавые дурацкие гитарные соло-поливалочки взятые за основу...просто бесят. И под этим всем еще и позиционируются как Мелодез... (IMG:style_emoticons/default/6.gif)


Go to the top of the page
  Insert nick Quick quote
+Quote Post
post Jul 14 2019, 17:16:43
Post #6

ухо-горло-нос
********
Group: Металариец
Posts: 806
Releases: 0
From: Севастополь
On Forums: 8 years 10 months
Thanks: 371 time(s)
Russian Federation


Вот что есть мелодез:

А то что играют эти японцы не тянет на дэз вообще, какая то невнятная истерика


Thanks:
(1) Andrew,
Go to the top of the page
  Insert nick Quick quote
+Quote Post

Reply to this topicStart new topic
1 User(s) are reading this topic (1 Guests and 0 Anonymous Users)
0 Members:

 



- Lo-Fi Version Support form
Copyrights and abuse reports form
Time is now: 18th July 2019 - 01:24:35