Welcome Guest ( Log In | Register )

> Releases Upload / Добавление релизов

Добавить релиз тут / Click here to add release
Рекомендованные обменники / Recommended file shares

 
Reply to this topicStart new topic
> Nosferatu's Kommando - Torture [ep] (2019), Black Metal/Ambient
post Jul 12 2019, 18:15:22
Post #1

Cultist
**************
Group: Металариец
Posts: 3,636
Releases: 1185
From: Koenigsberg
On Forums: 12 years 6 months
Thanks: 6717 time(s)
Russian Federation


(IMG:http://metalarea.org/images/audiocovers/2019_Jul/acov_tid324320_thumb.jpg)

*Artist: Nosferatu's Kommando
*Album: Torture [ep]
*Year: 2019
*Genre: Black Metal/Ambient
*Country: Romania (IMG:http://metalarea.org/forum/style_images/flags/Romania.png)
*Format: mp3@CBR320kbps
*Size: 45MB

Tracklist:
1.Intro 04:59
2.Sufferings 01:22
3.Din criptă 02:39
4.Blestem 05:49
5.- 04:35
******************************
Total playing time: 19:24



Technical info
(IMG:http://metalarea.org/images/spectrogram/2019_Jul/6e0d79ca23410591b807249391912342.png)
Input File: 04 - Blestem.mp3
Channels : 2
Sample Rate : 44100
Precision : 16-bit
Duration : 00:05:49.85 = 15428429 samples = 26238.8 CDDA sectors
File Size : 14.1M
Bit Rate : 322k
Sample Encoding: MPEG audio (layer I, II or III)
Comments :
Title=Blestem
Artist=Nosferatu's Kommando
Album=Torture
Tracknumber=4
Year=2019
Genre=Black Metal



Register


Go to the top of the page
  Insert nick Quick quote
+Quote Post

Reply to this topicStart new topic
1 User(s) are reading this topic (1 Guests and 0 Anonymous Users)
0 Members:

 



- Lo-Fi Version Support form
Copyrights and abuse reports form
Time is now: 18th July 2019 - 02:09:42