Welcome Guest ( Log In | Register )

> Releases Upload / Добавление релизов

Добавить релиз тут / Click here to add release
Рекомендованные обменники / Recommended file shares

 
Reply to this topicStart new topic
> Brutal Order - Homo Homini Lupus [ep] (2018), Old School Thrash Metal
post Jul 12 2019, 18:35:52
Post #1

Правь статус, ####!111
**************
Group: Металариец
Posts: 17,759
Releases: 12042
From: Г.Харьков
On Forums: 7 years 2 months
Thanks: 202149 time(s)
Unknown


(IMG:https://metalarea.org/images/audiocovers/2019_Jul/acov_tid324325_thumb.jpg)

*Artist: Brutal Order
*Album: Homo Homini Lupus [ep]
*Year: 2018
*Genre: Old School Thrash Metal
*Country: Brazil (IMG:https://metalarea.org/forum/style_images/flags/Brazil.png)
*Format: mp3@CBR320kbps
*Size: 45MB

Tracklist:
1. Homo Homini Lupus 02:45
2. Burn 04:20
3. Working Till Death 03:49
4. Brutal Order 04:10
5. Revolution or Self Destruction 04:59
******************************
Total playing time: 20:03




Extended info
Risaldo Silva Bass
Lulu Batera Drums
Randall Silva Guitars
Tiago Xaves Vocals and guitars


Technical info
(IMG:https://metalarea.org/images/spectrogram/2019_Jul/9972eb729e91b245e33f5a7351e2f943.png)
Input File: 02 - Burn.mp3
Channels : 2
Sample Rate : 44100
Precision : 16-bit
Duration : 00:04:20.88 = 11504588 samples = 19565.6 CDDA sectors
File Size : 10.4M
Bit Rate : 320k
Sample Encoding: MPEG audio (layer I, II or III)
Comments :
Title=Burn
Artist=Brutal Order
Album=Homo Homini Lupus
Tracknumber=2
Year=2018
Genre=Thrash Metal



Register


Go to the top of the page
  Insert nick Quick quote
+Quote Post

Reply to this topicStart new topic
1 User(s) are reading this topic (1 Guests and 0 Anonymous Users)
0 Members:

 



- Lo-Fi Version Support form
Copyrights and abuse reports form
Time is now: 18th July 2019 - 01:33:10