Welcome Guest ( Log In | Register )

 
Reply to this topicStart new topic
> Mortal Incarnation - Lunar Radiant Dawn [demo] (2019), Death/Doom Metal
post Jul 12 2019, 18:58:41
Post #1

Cultist
**************
Group: Металариец
Posts: 4,170
Releases: 1319
From: Koenigsberg
On Forums: 12 years 10 months
Thanks: 8286 time(s)
Russian Federation


(IMG:http://metalarea.org/images/audiocovers/2019_Jul/acov_tid324326_thumb.jpg)

*Artist: Mortal Incarnation
*Album: Lunar Radiant Dawn [demo]
*Year: 2019
*Genre: Death/Doom Metal
*Country: Japan (IMG:http://metalarea.org/forum/style_images/flags/Japan.png)
*Format: mp3@CBR320kbps
*Size: 38MB

Tracklist:
1.Infinite Consciousness Unchained from the Mortal Incarnation 06:20
2.A Dismal Propagation into Decay 10:05
******************************
Total playing time: 16:25



Extended info
Что-то вроде атмосферно-утробного Годзилла-метала с периодическими doom-замедлениями, но все-таки преимущественно дуст-метал.


Technical info
(IMG:http://metalarea.org/images/spectrogram/2019_Jul/0b62cfeeb28ab637eb530efa4cc2f080.png)
Input File: 02 - A Dismal Propagation Into Decay.mp3
Channels : 2
Sample Rate : 44100
Precision : 16-bit
Duration : 00:10:05.40 = 26697920 samples = 45404.6 CDDA sectors
File Size : 24.3M
Bit Rate : 321k
Sample Encoding: MPEG audio (layer I, II or III)
Comments :
Title=A Dismal Propagation Into Decay
Artist=Mortal Incarnation
Album=Lunar Radiant Dawn (Demo)
Tracknumber=2
Year=2019
Genre=Death/Doom Metal



Register


Go to the top of the page
  Insert nick Quick quote
+Quote Post

Reply to this topicStart new topic
1 User(s) are reading this topic (1 Guests and 0 Anonymous Users)
0 Members:

 



- Lo-Fi Version Support form
Copyrights and abuse reports form
Time is now: 21st November 2019 - 22:13:19