Welcome Guest ( Log In | Register )

> Releases Upload / Добавление релизов

Добавить релиз тут / Click here to add release
Рекомендованные обменники / Recommended file shares

> Nierty - Devoid Continuum (2019), Black/Death Metal
post Jul 12 2019, 19:39:51
Post #1

Правь статус, ####!111
**************
Group: Металариец
Posts: 17,759
Releases: 12042
From: Г.Харьков
On Forums: 7 years 2 months
Thanks: 202150 time(s)
Unknown


(IMG:https://metalarea.org/images/audiocovers/2019_Jul/acov_tid324327_thumb.jpg)

*Artist: Nierty
*Album: Devoid Continuum
*Year: 2019
*Genre: Black/Death Metal
*Country: United Kingdom (IMG:https://metalarea.org/forum/style_images/flags/United%20Kingdom.png)
*Format: mp3@CBR320kbps
*Size: 90MB

Tracklist:
01. It Speaks (Intro)
02. Immured
03. Leviatheon
04. Pryoclasm
05. Stigmortal
06. So Called Civilised
07. Beneath A Scathing Glare
08. Hivemind Subjugation
09. Sworn To The Corrupter
10. Peace Or Stagnation
11. Dominate The Righteous (Crush The Undeceived)
******************************
Total playing time: 42:33

Preview 1


Extended info


Technical info
(IMG:https://metalarea.org/images/spectrogram/2019_Jul/bd7a55426763504da84e8ba4f5a18d1d.png)
Input File: 03. Leviatheon.mp3
Channels : 2
Sample Rate : 44100
Precision : 16-bit
Duration : 00:04:20.77 = 11500001 samples = 19557.8 CDDA sectors
File Size : 10.5M
Bit Rate : 323k
Sample Encoding: MPEG audio (layer I, II or III)
Comments :
Title=Leviatheon
Artist=Nierty
Album=Devoid Continuum
Tracknumber=3/11
Year=2019
Genre=17
Discnumber=1/1



Register


Go to the top of the page
  Insert nick Quick quote
+Quote Post
 
Start new topic
Replies (1 - 2)
post Jul 13 2019, 20:39:52
Post #2

Литр
*
Group: Подсевший
Posts: 71
Releases: 0
On Forums: 11 years 10 months
Thanks: 30 time(s)
China


and again, that shitty Drumkitfromhell fake drums....
Go to the top of the page
  Insert nick Quick quote
+Quote Post
post Jul 13 2019, 23:33:25
Post #3

Правь статус, ####!111
**************
Group: Металариец
Posts: 3,771
Releases: 0
From: Одесса
On Forums: 11 years 4 months
Thanks: 1848 time(s)
Unknown


symphoshlagmetal
Go to the top of the page
  Insert nick Quick quote
+Quote Post

Reply to this topicStart new topic
1 User(s) are reading this topic (1 Guests and 0 Anonymous Users)
0 Members:

 



- Lo-Fi Version Support form
Copyrights and abuse reports form
Time is now: 18th July 2019 - 01:47:45