Welcome Guest ( Log In | Register )

> Steingrab - Manifestierte Alpträume [compilation] (2019), Atmospheric Black Metal
post Jul 12 2019, 20:11:54
Post #1

Литр
*
Group: Подсевший
Posts: 81
Releases: 36
On Forums: 7 months 4 weeks
Thanks: 645 time(s)
Unknown


(IMG:https://metalarea.org/images/audiocovers/2019_Jul/acov_tid324329_thumb.jpg)

*Artist: Steingrab
*Album: Manifestierte Alpträume [compilation]
*Year: 2019
*Genre: Atmospheric Black Metal
*Country: Germany (IMG:https://metalarea.org/forum/style_images/flags/Germany.png)
*Format: mp3@VBR260kbps
*Size: 84MB

Tracklist:
1. Intro 00:48
2. Mystic 05:00
3. Styx 05:29
4. Verflucht 05:35
5. Rachewalzer 03:23
6. Der Spiegel 08:23
7. Zeugen Der Macht 05:35
8. Zum Ende 05:38
9. Jahre nach der Pest 05:57
******************************
Total playing time: 45:48

(IMG:https://metalarea.org/images/youtube.png)

Technical info
(IMG:https://metalarea.org/images/spectrogram/2019_Jul/c61f43a4169fdcc410690887047dbd79.png)
Input File: 07-steingrab-zeugen_der_macht.mp3
Channels : 2
Sample Rate : 44100
Precision : 16-bit
Duration : 00:05:35.88 = 14812308 samples = 25191 CDDA sectors
File Size : 11.0M
Bit Rate : 261k
Sample Encoding: MPEG audio (layer I, II or III)
Comments :
Title=Zeugen der Macht
Artist=Steingrab
Album=Manifestierte Alpträume
Tracknumber=7/9
Year=2019-00-00
Genre=Black Metal



Register


Go to the top of the page
  Insert nick Quick quote
+Quote Post
 
Start new topic
Replies (1 - 1)
post Jul 13 2019, 03:19:31
Post #2

Четыре Литра
****
Group: Металариец
Posts: 325
Releases: 184
On Forums: 7 years 2 months
Thanks: 4512 time(s)
Unknown




Free digital
Go to the top of the page
  Insert nick Quick quote
+Quote Post

Reply to this topicStart new topic
1 User(s) are reading this topic (1 Guests and 0 Anonymous Users)
0 Members:

 



- Lo-Fi Version Support form
Copyrights and abuse reports form
Time is now: 9th December 2019 - 05:39:38