Welcome Guest ( Log In | Register )

 
Reply to this topicStart new topic
> Fourkaos - Remnants Of Sanity (2019), Heavy/Thrash Metal
post Jul 12 2019, 20:20:14
Post #1

Правь статус, ####!111
**************
Group: Металариец
Posts: 19,572
Releases: 13248
From: Г.Харьков
On Forums: 7 years 6 months
Thanks: 228493 time(s)
Unknown


(IMG:https://metalarea.org/images/audiocovers/2019_Jul/acov_tid324330_thumb.jpg)

*Artist: Fourkaos
*Album: Remnants Of Sanity
*Year: 2019
*Genre: Heavy/Thrash Metal
*Country: Brazil (IMG:https://metalarea.org/forum/style_images/flags/Brazil.png)
*Format: mp3@CBR320kbps
*Size: 62MB

Tracklist:
01. Insurrection
02. Above the Wrath
03. Wreckage
04. Hear This so Quiet Place
05. Immersion
06. Duality Remains in My Hands
07. Silence and Chaos
08. The Last
******************************
Total playing time: 28:46



Extended info
Johnny Glaydson
Matheus Henrique
Matheus Oliver
Rodolfo Diniz


Technical info
(IMG:https://metalarea.org/images/spectrogram/2019_Jul/90c8b183200dc913b125115320522d13.png)
Input File: 04. Hear This so Quiet Place.mp3
Channels : 2
Sample Rate : 44100
Precision : 16-bit
Duration : 00:04:53.64 = 12949304 samples = 22022.6 CDDA sectors
File Size : 11.9M
Bit Rate : 324k
Sample Encoding: MPEG audio (layer I, II or III)
Comments :
Title=Hear This so Quiet Place
Artist=Fourkaos
Album=Remnants of Sanity
Tracknumber=4/8
Year=2019
Genre=9
Discnumber=1/1



Register


Go to the top of the page
  Insert nick Quick quote
+Quote Post

Reply to this topicStart new topic
1 User(s) are reading this topic (1 Guests and 0 Anonymous Users)
0 Members:

 



- Lo-Fi Version Support form
Copyrights and abuse reports form
Time is now: 21st November 2019 - 22:06:07