Welcome Guest ( Log In | Register )

> Poems Of The Elder - Reawakening Of Germanic Spirit (2019), Atmospheric Black Metal
post Jul 12 2019, 20:45:09
Post #1

Литр
*
Group: Подсевший
Posts: 80
Releases: 35
On Forums: 7 months 2 days
Thanks: 618 time(s)
Unknown


(IMG:https://metalarea.org/images/audiocovers/2019_Jul/acov_tid324334_thumb.jpg)

*Artist: Poems Of The Elder
*Album: Reawakening Of Germanic Spirit
*Year: 2019
*Genre: Atmospheric Black Metal
*Country: Germany (IMG:https://metalarea.org/forum/style_images/flags/Germany.png)
*Format: mp3@CBR320kbps
*Size: 89MB

Tracklist:
1. Of Fire and Folklore 9:31
2. The Sun at Midnight 1:59
3. Upon the Swearing of a Solemn Oath 7:30
4. The First Day of Breidablik 2:10
5. Dawn of the North 7:23
6. Germania, Lost 7:48
7. Helm of the Boar 2:45
******************************
Total playing time: 39:06

(IMG:https://metalarea.org/images/youtube.png)

Technical info
(IMG:https://metalarea.org/images/spectrogram/2019_Jul/38d79cfbe711b32ae24bbe1e5b27e1c2.png)
Input File: 01 Of Fire and Folklore.mp3
Channels : 2
Sample Rate : 44100
Precision : 16-bit
Duration : 00:09:30.60 = 25163372 samples = 42794.9 CDDA sectors
File Size : 22.8M
Bit Rate : 320k
Sample Encoding: MPEG audio (layer I, II or III)
Comments :
Title=Of Fire and Folklore
Artist=Poems of the Elder
Album=Reawakening of Germanic Spirit
Tracknumber=01
Year=2019
Genre=Atmospheric Black Metal



Register


Go to the top of the page
  Insert nick Quick quote
+Quote Post
 
Start new topic
Replies (1 - 3)
post Jul 13 2019, 11:53:08
Post #2

Маньяк
**********
Group: Металариец
Posts: 1,101
Releases: 37
From: великий город Питер
On Forums: 13 years 10 months
Thanks: 1882 time(s)
Russian Federation


Go to the top of the page
  Insert nick Quick quote
+Quote Post
post Jul 14 2019, 11:41:47
Post #3

Правь статус, ####!111
**************
Group: Металариец
Posts: 2,715
Releases: 8
From: Dnipro
On Forums: 11 years 4 months
Thanks: 850 time(s)
Ukraine


Кизячня какая то (IMG:style_emoticons/default/22.gif)
Go to the top of the page
  Insert nick Quick quote
+Quote Post
post Jul 14 2019, 12:03:18
Post #4

Шесть Литров
******
Group: Металариец
Posts: 639
Releases: 0
From: South Of Heaven
On Forums: 12 years 3 months
Thanks: 291 time(s)
Ukraine


Какой- то шлак , ещё и запись ужасная...
Go to the top of the page
  Insert nick Quick quote
+Quote Post

Reply to this topicStart new topic
1 User(s) are reading this topic (1 Guests and 0 Anonymous Users)
0 Members:

 



- Lo-Fi Version Support form
Copyrights and abuse reports form
Time is now: 12th November 2019 - 20:06:35